Today is a free download without charge Download

Страсти по Чапаю (1-12 серии из 12) (2012) [720p] HDTVRip

Reply to topic
 
Author
Message

UndegraundMen ®

Longevity: 8 years 9 months

Posts: 25145

Торрент-статистика

Post 04-Mar-2013 06:24

[Quote]

Страсти по Чапаю (1-12 серии из 12) (2012) [720p] HDTVRip- Оригинальное название: Страсти по Чапаю
Год выпуска: 2012
Страна: Россия / «Централ Партнёршип» и «ООО «Фаворит – Фильм»
Жанр: драма, история, военный-Премьера:
13 февраля 2013 (Первый канал)
Режиссер: Сергей Щербин
Актеры: Сергей Стрельников, Дмитрий Щербина, Карина Андоленко, Александр Соколовский, Ольга Павловец, Юрий Батурин, Станислав Боклан, Максим Дрозд, Илья Соколовский, Алексей Лонгин, Евгений Данчевский, Юлия Галкина, Иван Паршин, Евгения Лютая, Кирилл Полухин, Владимир Капустин, Мария Палей, Павел Шингарёв, Евгений Князев, Яков Шамшин, Юрий Евсюков, Иван Добронравов, Александра Чичкова, Климентий Плохотнюк, Константин Глушков, Александра Лупашко...

Описание фильма: Начало прошлого века. Спасаясь от преследования полиции, 18-летний Василий Чапаев вместе со своей возлюбленной Настей убегают из родного села. После длительных скитаний Настя умирает от тяжелой болезни. Чапаев возвращается домой, где начинает работать плотником, и женится на красавице Пелагее, которая рожает ему троих детей. Войны врываются в мирную жизнь. Первая мировая, затем гражданская. Пока Чапаев воюет, жена Пелагея сбегает от него с кондуктором. На фронтах Чапаев добивается признания и славы, обретает друзей и врагов, влюбляется в женщин. Однако страстные романы с дочерью белогвардейского полковника, а затем с женой красного комиссара приносят Чапаеву лишь горечь и разочарование. Перед смертью, за минуту до гибели, Чапаев вспоминает свою первую любовь - Настю, с которой он был когда-то по-настоящему счастлив. Это история о суровой правде эпохи, полной жестокости, смертельной вражды, сломанных судеб, непоправимых ошибок, невозвратимых потерь. Это трагедия русского народа и трагедия большой любви........-Продолжительность: серия ~ 00:52
Качество видео: HDTVRip (720p)
Формат: MKV
Видеокодек: MPEG-4 AVC
Битрейт видео: ~ 3850 kbps avg
Размер кадра: 1280x720 (16:9), 25.000 fps
Аудиокодек: AC3
Аудио: 48,0, 2 ch, 192 Кбит/сек
Субтитры: отсутствуют

.

MediaInfo:

Формат : Matroska
Версия формата : Version 2
Размер файла : 1,44 Гбайт
Продолжительность : 51 м.
Общий поток : 4032 Кбит/сек
Дата кодирования : UTC 2013-02-14 03:36:48
Программа кодирования : mkvmerge v4.9.1 ('Ich will')
Библиотека кодирования : libebml v1.2.1 + libmatroska v1.1.1
Видео
Идентификатор : 1
Формат : AVC
Формат/Информация : Advanced Video Codec
Профиль формата : [url=mailto:[email protected]][email protected][/url]
Параметр CABAC формата : Да
Параметр ReFrames формата : 5 кадров
Идентификатор кодека : V_MPEG4/ISO/AVC
Продолжительность : 51 м.
Битрейт : 3850 Кбит/сек
Ширина : 1280 пикселей
Высота : 720 пикселей
Соотношение сторон : 16:9
Режим частоты кадров : Постоянный
Частота кадров : 25,000 кадров/сек
Цветовое пространство : YUV
Субдискретизация насыщенности : 4:2:0
Битовая глубина : 8 бит
Тип развёртки : Прогрессивная
Бит/(Пиксели*Кадры) : 0.167
Размер потока : 1,35 Гбайт (93%)
Библиотека кодирования : x264 core 116 r2044 392e762
Настройки программы : cabac=1 / ref=5 / deblock=1:-1:-1 / analyse=0x3:0x113 / me=umh / subme=10 / psy=1 / psy_rd=0.00:0.10 / mixed_ref=1 / me_range=32 / chroma_me=1 / trellis=2 / 8x8dct=1 / cqm=0 / deadzone=21,11 / fast_pskip=0 / chroma_qp_offset=-1 / threads=12 / sliced_threads=0 / nr=0 / decimate=1 / interlaced=0 / bluray_compat=0 / constrained_intra=0 / bframes=5 / b_pyramid=2 / b_adapt=1 / b_bias=0 / direct=1 / weightb=1 / open_gop=0 / weightp=2 / keyint=250 / keyint_min=25 / scenecut=40 / intra_refresh=0 / rc_lookahead=40 / rc=abr / mbtree=1 / bitrate=3850 / ratetol=1.0 / qcomp=0.60 / qpmin=0 / qpmax=69 / qpstep=4 / ip_ratio=1.40 / aq=1:1.00
Default : Да
Forced : Нет
Аудио
Идентификатор : 2
Формат : AC-3
Формат/Информация : Audio Coding 3
Расширение режима : CM (complete main)
Параметр Endianness формата : Big
Идентификатор кодека : A_AC3
Продолжительность : 51 м.
Вид битрейта : Постоянный
Битрейт : 192 Кбит/сек
Каналы : 2 канала
Расположение каналов : Front: L R
Частота : 48,0 КГц
Битовая глубина : 16 бит
Метод сжатия : С потерями
Размер потока : 70,4 Мбайт (5%)
Default : Да
Forced : Нет
Скриншоты:
         
         
Other forum [Profile] [PM]
Display posts from previous:    
Reply to topic

The time now is: Today 22:46

All times are GMT + 3 Hours



You cannot post new topics in this forum
You cannot reply to topics in this forum
You cannot edit your posts in this forum
You cannot delete your posts in this forum
You cannot vote in polls in this forum
You cannot attach files in this forum
You cannot download files in this forum