Today is a free download without charge Download

Берега [8 серий из 8] (2013) SATRip

Reply to topic
 
Author
Message

UndegraundMen ®

Longevity: 8 years 9 months

Posts: 25145

Торрент-статистика

Post 04-Mar-2013 06:24

[Quote]

Берега [8 серий из 8] (2013) SATRip- Русское название: Берега
Производство: Россия
Год выпуска: 2013
Жанр: Боевик, Мелодрама
Перевод: Не требуется (Русский)

Дата российской премьеры: 23 февраля 2013
Режиссер: Богдан Дробязко
Актеры: Александр Носик, Екатерина Вуличенко, Елена Захарова, Сергей Баталов, Алексей Симонов, Владимир Носик, Сергей Дорогов, Сергей Фролов, Олег Комаров, Александр Кузнецов, Ян Цапник
Описание фильма:
На российско-финскую границу из Москвы, для дальнейшей службы, прибывает майор-штабист Ковальский, зять столичного генерала. По каким причинам птица такого высокого полета залетела в глухомань, никто не знает. Привыкший к городским условиям комфортной квартиры, Ковальский вынужден смириться с здешним бытом. Да и события которые произошли с первого дня прибытия, требуют все внимание главного героя. Великое множество различных нарушений в гарнизоне Ковалеский увидел сразу своим профессиональным взглядом. Он не привык работать кое-как. Везде нужно навести порядок. Внезапная, настоящая любовь, которая бывает раз в жизни, застала майора неожиданно. И что с ней делать? Потерять нельзя. Но цель Ковальского вернуться в Москву и заниматься настоящим делом...
Продолжительность: 8 х ~ 00:42:26 серия
Качество видео: SATRip
Видеокодек: DivX 5
Битрейт видео: ~1500 Kbit/s
Размер кадра: 720 х 400
Аудиокодек: MP3, 2.0
Битрейт аудио: 128 Kbit/s

MediaInfo

Общее
Полное имя : D:\Торренты\ФИЛЬМЫ торента\Берега. 2013. SATRip\Берега.01.avi
Формат : AVI
Формат/Информация : Audio Video Interleave
Размер файла : 497 Мбайт
Продолжительность : 42 м.
Общий поток : 1638 Кбит/сек
Программа кодирования : VirtualDubModRus 1.5.10.1 (build 2439/release)
Библиотека кодирования : VirtualDubMod build 2439/release
Видео
Идентификатор : 0
Формат : MPEG-4 Visual
Параметр BVOP формата : 1
Параметр QPel формата : Нет
Параметр GMC формата : Без точки перехода
Параметр матрицы формата : Default (H.263)
Режим смешивания : Сжатый битовый поток
Идентификатор кодека : DX50
Идентификатор кодека/Подсказка : DivX 5
Продолжительность : 42 м.
Битрейт : 1500 Кбит/сек
Ширина : 720 пикс.
Высота : 400 пикс.
Соотношение сторон : 16:9
Частота кадров : 25,000 кадр/сек
Цветовое пространство : YUV
Подвыборка цветности : 4:2:0
Битовая глубина : 8 бит
Тип развёртки : Прогрессивная
Метод сжатия : С потерями
Бит/(Пиксели*Кадры) : 0.208
Размер потока : 455 Мбайт (92%)
Библиотека кодирования : DivX 6.8.5 (UTC 2009-08-20)
Аудио
Идентификатор : 1
Формат : MPEG Audio
Версия формата : Version 1
Профиль формата : Layer 2
Идентификатор кодека : 50
Продолжительность : 42 м.
Вид битрейта : Постоянный
Битрейт : 128 Кбит/сек
Каналы : 2 канала
Частота : 48,0 КГц
Метод сжатия : С потерями
Размер потока : 38,8 Мбайт (8%)
Выравнивание : Соединение по промежуткам
Продолжительность промежутка : 40 мс. (1,00 видеокадр)
Время предзагрузки промежутка : 504 ms
Скриншоты:
           
Время раздачи: 24/7 по возможности
Other forum [Profile] [PM]
Display posts from previous:    
Reply to topic

The time now is: Today 23:18

All times are GMT + 3 Hours



You cannot post new topics in this forum
You cannot reply to topics in this forum
You cannot edit your posts in this forum
You cannot delete your posts in this forum
You cannot vote in polls in this forum
You cannot attach files in this forum
You cannot download files in this forum