Today is a free download without charge Download

Марьина Роща [16 серий из 16] (2012) DVDRip

Reply to topic
 
Author
Message

UndegraundMen ®

Longevity: 8 years 9 months

Posts: 25145

Торрент-статистика

Post 04-Mar-2013 06:24

[Quote]

Марьина Роща [16 серий из 16] (2012) DVDRip- Русское название: Марьина Роща
Производство: Россия, "Мостелефильм", ТК "Россия 1"
Год выпуска: 2012
Жанр: Драма, Детектив, История
Перевод: Не требуется (Русский)
Субтитры: Отсутствуют

Дата российской премьеры: 14 января 2013
Дата выхода DVD релиза: 21 февраля 2013, «Русское счастье»
Режиссер: Александр Хван
Актеры: Александр Домогаров, Евгения Крюкова, Виталий Кудрявцев, Сергей Комаров, Савва Гусев, Елена Доронина, Яна Львова, Наталья Литвинова, Виктор Тереля, Артем Лысков...
Описание фильма:
Оперативник МУРа Константин Трошин возвращается с фронта после победы в Великой Отечественной войне и узнает, что в милиции больше не работает. Причина — конфликт с влиятельным генералом НКГБ СССР. Но без милиции Трошин не представляет свою жизнь. Ему удается устроиться участковым в самом неблагополучном районе Москвы — Марьиной Роще. В силу личных проблем, Трошин вынужден поселиться в коммуналке, здесь же, в Марьиной Роще. Находясь в эпицентре криминальной среды и тесно сойдясь с ее обитателями, Трошин распутывает хладнокровные убийства, дерзкие налеты и хитроумные аферы. Но не преступники цель Трошина. Он ставит перед собой задачу — искоренить само преступление. Находясь на позиции участкового, он постепенно становится третейским судьей, которому люди доверяют отделять добро от зла.
Продолжительность: 16 х ~00:44:30 серия
Качество видео: DVDRip
Видеокодек: Xvid
Битрейт видео: ~1340 Kbit/s
Размер кадра: 688 x 384
Аудиокодек: AC3, 2.0
Битрейт аудио: 192 Kbit/s

MediaInfo

Общее
Полное имя : D:\Торренты\ФИЛЬМЫ торента\Марьина роща. 2012.DVDRip\Марьина роща. 16.avi
Формат : AVI
Формат/Информация : Audio Video Interleave
Размер файла : 493 Мбайт
Продолжительность : 44 м.
Общий поток : 1541 Кбит/сек
Программа кодирования : VirtualDubModRus 1.5.10.2 (build 2542/release)
Библиотека кодирования : VirtualDubMod build 2542/release
Видео
Идентификатор : 0
Формат : MPEG-4 Visual
Профиль формата : Advanced [email protected]
Параметр BVOP формата : 1
Параметр QPel формата : Нет
Параметр GMC формата : Без точки перехода
Параметр матрицы формата : Выборочная
Идентификатор кодека : XVID
Идентификатор кодека/Подсказка : XviD
Продолжительность : 44 м.
Битрейт : 1340 Кбит/сек
Ширина : 688 пикс.
Высота : 384 пикс.
Соотношение сторон : 16:9
Частота кадров : 25,000 кадр/сек
Цветовое пространство : YUV
Подвыборка цветности : 4:2:0
Битовая глубина : 8 бит
Тип развёртки : Прогрессивная
Метод сжатия : С потерями
Бит/(Пиксели*Кадры) : 0.203
Размер потока : 428 Мбайт (87%)
Библиотека кодирования : XviD 64
Аудио
Идентификатор : 1
Формат : AC-3
Формат/Информация : Audio Coding 3
Расширение режима : CM (complete main)
Идентификатор кодека : 2000
Продолжительность : 44 м.
Вид битрейта : Постоянный
Битрейт : 192 Кбит/сек
Каналы : 2 канала
Расположение каналов : Front: L R
Частота : 48,0 КГц
Битовая глубина : 16 бит
Метод сжатия : С потерями
Размер потока : 61,4 Мбайт (12%)
Выравнивание : Разделение по промежуткам
Продолжительность промежутка : 40 мс. (1,00 видеокадр)
Время предзагрузки промежутка : 500 ms
Скриншоты:
       
       
Other forum [Profile] [PM]
Display posts from previous:    
Reply to topic

The time now is: Today 17:59

All times are GMT + 3 Hours



You cannot post new topics in this forum
You cannot reply to topics in this forum
You cannot edit your posts in this forum
You cannot delete your posts in this forum
You cannot vote in polls in this forum
You cannot attach files in this forum
You cannot download files in this forum