Today is a free download without charge Download

Собачья работа (8 серий из 8) (2012) DVD9

Reply to topic
 
Author
Message

UndegraundMen ®

Longevity: 8 years 9 months

Posts: 25145

Торрент-статистика

Post 04-Mar-2013 06:24

[Quote]

Собачья работа (8 серий из 8) (2012) DVD9- Русское название: Собачья работа
Оригинальное название: Собачья работа
Год выпуска:2012
Страна: Россия / ООО "Арт Пикчерс Медиа"
Жанр: криминал, детектив

Дата Российской премьеры: 08 октября 2012
Дата выхода DVD релиза: 14 февраля 2013, «Компания WWW RECORDS»
Режиссер: Алексей Рудаков
Актеры: Владимир Епифанцев, Ирина Лачина, Александр Стриженов, Светлана Немоляева, Михаил Полицеймако, Елена Дробышева, Анатолий Журавлёв, Галина Звягинцева, Наталия Житкова, Сергей Фролов, Алексей Ильин, Иван Рудаков, Тамара Череповская, Полина Шулика, Игорь Пазыч, Денис Варенов, Николай Круглов, Александр Пугачев....
Описание фильма:
Капитан полиции и кинолог Илья Смагин (Владимир Епифанцев) во время спецоперации по обезвреживанию банды наркодилеров теряет своего напарника и верного друга - пса Рагдая. Смагин тяжело переживает потерю, но, несмотря на уговоры сослуживцев и своей жены-художницы Тони (Ирина Лачина), не спешит брать новую собаку. Рагдай был лучшим "поисковиком" кинологической службы, и Смагин не верит, что ему когда-нибудь удастся найти пса, равного ему. Однако когда Илья уже решает начать поиски новой собаки, судьба преподносит ему неожиданный подарок. Смагину передают письмо от погибшего товарища, в котором тот просит позаботиться о его ретривере Луше...
Продолжительность: 8 ~ 00:45:00
Качество видео: DVD9 R5
Видеокодек: MPEG2
Битрейт видео: ~45,4 mbps
Размер кадра: 720х[email protected]
Аудиокодек: AC3
Аудио: 48 kHz, 2 ch, ~96 kbps
Субтитры: Нет
Доп.материалы: Нет

DVDInfo

Title: Sobachya.rabota.2012.nnm.DVD9
Size: 7.40 Gb ( 7 754 590,00 KBytes ) - DVD-9
Enabled regions: 1, 2, 3, 4, 5, 6, 7, 8
VTS_01 :
Play Length: 00:44:01+00:44:51+00:44:41+00:44:31+00:43:41+00:44:31+00:44:36+00:44:01
Video: PAL 16:9 (720x576) VBR, Auto Letterboxed
Audio:
English, AC3, 2/0 (L,R) ch, 96 kbps, Delay 0 mSec

MediaInfo:

Общее
Полное имя : I:\Kino\Собачья работа\Sobachya.rabota.2012.nnm.DVD9\VIDEO_TS\VTS_01_2.VOB
Формат : MPEG-PS
Размер файла : 1024 Мбайт
Продолжительность : 3 м. 5 с.
Режим общего битрейта : Переменный
Общий поток : 46,4 Мбит/сек
Видео
Идентификатор : 224 (0xE0)
Формат : MPEG Video
Версия формата : Version 2
Профиль формата : [email protected]
Параметр BVOP формата : Да
Параметр матрицы формата : Выборочная
Продолжительность : 3 м. 4 с.
Вид битрейта : Переменный
Битрейт : 45,4 Мбит/сек
Максимальный битрейт : 8100 Кбит/сек
Ширина : 720 пикселей
Высота : 576 пикселей
Соотношение сторон : 16:9
Частота кадров : 25,000 кадров/сек
Стандарт вещания : PAL
Цветовое пространство : YUV
Субдискретизация насыщенности : 4:2:0
Битовая глубина : 8 бит
Тип развёртки : Прогрессивная
Метод сжатия : С потерями
Бит/(Пиксели*Кадры) : 4.378
Размер потока : 999 Мбайт (98%)
Аудио
Идентификатор : 189 (0xBD)-128 (0x80)
Формат : AC-3
Формат/Информация : Audio Coding 3
Расширение режима : CM (complete main)
Режим смешивания : DVD-Video
Продолжительность : 3 м. 5 с.
Вид битрейта : Постоянный
Битрейт : 96,0 Кбит/сек
Каналы : 2 канала
Расположение каналов : Front: L R
Частота : 48,0 КГц
Битовая глубина : 16 бит
Метод сжатия : С потерями
Задержка видео : -592 мс.
Размер потока : 2,12 Мбайт (0%)
Меню

Скриншоты меню

   
Скриншоты:      
     
-
Other forum [Profile] [PM]
Display posts from previous:    
Reply to topic

The time now is: Today 17:14

All times are GMT + 3 Hours



You cannot post new topics in this forum
You cannot reply to topics in this forum
You cannot edit your posts in this forum
You cannot delete your posts in this forum
You cannot vote in polls in this forum
You cannot attach files in this forum
You cannot download files in this forum