Today is a free download without charge Download

Спецназ 1-2 (7 серий) (2002-2003) [H.264] DVDRip

Reply to topic
 
Author
Message

UndegraundMen ®

Longevity: 8 years 9 months

Posts: 25145

Торрент-статистика

Post 04-Mar-2013 06:24

[Quote]

Спецназ 1-2 (7 серий) (2002-2003) [H.264] DVDRip - Русское название: Спецназ 1-2
Производство: Кинокомпания "СВАРОГ ФИЛЬМ" по заказу ОРТ
Год выпуска: 2002-2003
Жанр: Боевик
Дата российской премьеры: 1 января 2002
Дата российской премьеры: 6 октября 2003
Возрастное ограничение: 16+
Режиссер: Андрей Малюков
Оператор: Владимир Спорышков
Композиторы: Игорь Матвиенко (песня), Алексей Григорьев
Продюсеры: Анатолий Максимов, Константин Эрнст
Ведущий продюсер: Николай Суслов
Актеры: Александр Балуев (майор Платов или Клим), Алексей Кравченко (капитан Вяземский или Док), Андрей Зибров (ст.прапорщик Шахмаметьев или Шах), Игорь Лифанов (ст. прапорщик Хрусталев или Хруст), Владислав Галкин (ст. лейтенант Урманов или Якут), Александр Носик (Змей), Эвклид Кюрдзидис (Вагиф) ("Сломанная стрела"), Михаил Пореченков (Уолленс) ("Клинок"), Владимир Турчинский (Озорных) ("Засада")
Описание фильма:
Описание: «Спецназ» — новый проект ОРТ. Такое кино практически не снимают на телевидении. По затратам сил и средств этот проект можно сравнить с кинофильмом: военные сцены, каскадерские трюки, спецэффекты. Ни в одном телевизионном сериале нет таких сложных съемок...
Режиссер Андрей Малюков: «Герои нашего сериала — персонажи положительные, несмотря на их жесткое и порой жестокое поведение. Каждый их поступок — это защита Родины. Да, они убивают, не задумываясь, но это говорит, прежде всего, об их профессионализме, нежели о цинизме и жестокости. Если бы эти люди хоть на секунду задумались перед тем, как выстрелить, то они уже были бы убиты. Спецназовцы — это люди поступка во имя государства. В этом сериале главное — не сюжетная линия, а раскрытие характеров героев в экстремальных ситуациях».
Главные герои сериала «Спецназ» — бойцы и офицеры армейского спецподразделения ГРУ. Спецназ военной разведки — это элита вооруженных сил. Но страна не знает своих героев в лицо. Их лица и их работа — это государственный секрет. В картине рассказывается о реальных и, в то же время, невероятных событиях из жизни спецназа в Чечне и Санкт-Петербурге. Каждая серия «Спецназа» — новое дело майора Клима Платова и его бойцов. На каждом шагу их ждет новая опасность, новые обстоятельства и новая «горячая точка».
Продолжительность: 7x ~ 00:50:00
Качество видео: DVDRip
Видеокодек: MPEG-4 AVC/H.264
Битрейт видео: ~2 408 Кбит/с|2484 Кбит/сек|2174 Кбит/сек|1440 Кбит/сек|1980 Кбит/сек|1520 Кбит/сек|1583 Кбит/сек
Размер кадра (1-3 серия): [email protected]
Размер кадра (4 серия): [email protected]
Размер кадра (5,7 серия): [email protected]
Размер кадра (6 серия): [email protected]
Аудиокодек: AC3 2.0
Битрейт аудио: 192 Кбит/сек

Описание серий:

1-я серия: "Сломанная стрела"
МАЙОРУ ПЛАТОВУ. СРОЧНО. ПО ОПЕРАТИВНЫМ ДАННЫМ В ЧЕТВЕРГ В РАЙОНЕ СЕЛА ДУБА-ЮРТ ОЖИДАЕТСЯ ГРУППА ХОРОШО ВООРУЖЁННЫХ БОЕВИКОВ. ПРИКАЗЫВАЮ: БАНДУ ЗАДЕРЖАТЬ, ПРИ СОПРОТИВЛЕНИИ УНИЧТОЖИТЬ.
Бандитская группировка, возглавляемая чеченским боевиком Вагифом, при помощи российского военнослужащего покупает партию переносных зенитно-ракетных комплексов «Стрела-2М» для уничтожения наших штурмовиков «СУ-24». Отряд спецназа получает приказ нейтрализовать канал снабжения и захватить террористов.
2-я серия: "Засада"
Отряд спецназа направляется на важное задание в Чечню: дан приказ обезвредить особо жестокую бандитскую группировку под предводительством бывшего лейтенанта САС Шарафа. Изучив его стратегию по Афганской войне, командование принимает решение устроить засаду: взорвать мост и продемонстрировать ложную дислокацию отряда на место, где ранее была разбита колонна спецназа.
3-я серия: "Клинок"
В Санкт-Петербурге обнаруживается большая партия фальшивых долларов. Операция по захвату продавца фальшивок потерпела провал. Однако был найден след, который указывал на чеченскую группировку. Спецназовцы получают задание найти подпольную лабораторию, где печатается валюта, и уничтожить матрицу.
4-я серия: "Дыхание пророка"
В Афганистане в кишлаке Мазар-а-Кан террористическая группировка под предводительством Бородатого и Давлет-хана в секретной лаборатории ведет работу по созданию смертоносного вируса - "Дыхание пророка". Вирус был испытан на людях. Его действие – мгновенная смерть.
Руководство разведывательного управления Санкт-Петербурга ставит перед отрядом спецназа задачу обнаружить подпольную лабораторию, производящую вирус, найти вакцину от него. На операцию отводится 48 часов, затем лаборатория будет ликвидирована при помощи бомбового удара.
Отряд спецназа в составе Платова, Вяземского, Хруста, Змея, Якута и опытного вирусолога Фархадова отправляются на вертолете в Афганистан.
По прибытии на место назначения вертолет спецназовцев подвергается нападению со стороны боевиков. Во время перестрелки Хруст получает серьезное ранение. Талибы убили проводника Усланбека, отряду пришлось воспользоваться услугами мальчика, который привел их в заминированную зону. Мальчик-проводник погибает, а отряду удается добраться до полевого госпиталя, где Хруст был прооперирован.
Хирург госпиталя, будучи причастным к деятельности лаборатории, помогает группе спецназа добраться до пункта назначения, где происходит крупная перестрелка, в результате чего обнаруживается место нахождения вакцины. Один из спецназовцев заражается вирусом, но, найдя вакцину, его успевают спасти
5-я серия: "Взлетная полоса"
Террористическая группировка под предводительством Бородатого планирует крупный теракт: взять в заложники министров иностранных дел среднеазиатских государств, США и России, которые должны прибыть на саммит в Ташкент. Боевикам уже удалось захватить в Афганистане аэродром Сар-Аб. Следующим их шагом должен стать захват питерского самолета с пассажирами. После захвата самолета четырьмя террористами выясняется, что на борту оказался спецназовец Хруст, который направлялся в отпуск на Кипр.
Группа майора Платова получает задание "зачистить" аэродром, контролируемый талибами до прибытия туда самолета и не допустить жертв среди заложников-пассажиров. Спецназовцам удается без потерь проникнуть на аэродром, занятый боевиками, а Хруст берет под контроль ситуацию в самолете.
По прибытии самолета в Сар-Аб пассажиры и пилоты были освобождены и отправлены до ближайшего нейтрального аэродрома. Отряд спецназа, в результате ожесточенной перестрелки с боевиками Бородатого, благополучно покинул взлетную полосу аэродрома
6-я серия: "Покушение"
В небольшом городке Оби-Гарм, что находится в ста километрах от столицы Таджикистана Душанбе, происходит покушение на главу афганской делегации генерала Борзани. Для сопровождения генерала на место встречи из Санкт-Петербурга вызывается группа спецназа во главе с майором Платовым.
По прибытии в Душанбе группа Платова полностью берет на себя охрану афганского лидера: тщательно прочесывая местность, инструктируя внутреннюю и внешнюю охрану особняка, разрабатывая стратегический план проезда колонны по трассе. Платов уверен, что талибы готовят новое покушение на генерала, которое должно произойти во время движения колонны на горной трассе.
Платов, не доверяя таджикской стороне, в последний момент меняет машину, в которой должен следовать генерал. Однако осведомитель успевает передать новую информацию боевикам.
Несмотря на все меры предосторожности, машина с генералом подвергается обстрелу и спецназовцам приходится вступить в бой. В ходе перестрелки талибы были уничтожены, со стороны спецназовцев никто не пострадал. Осведомитель талибов полковник генерального штаба Акобиров был вычислен и устранен. Бригадный генерал Борзани доставлен на место встречи
7-я серия: "Послушник"
Выполнив очередное задание, команда Платова возвращается из Чечни в Петербург. Перед отъездом группа направляется на блокпост за полковым священником, который проводит там обряд крещения. В этот момент террористы открывают огонь по блокпосту. Подоспевшие спецназовцы спасают уцелевших в перестрелке, среди которых и отец Василий. Уже в вертолете Хруст узнает в нем своего бывшего сослуживца Орлова по прозвищу "Бекас". Несколько лет назад его семилетняя дочь погибла при захвате школы террористами. После этой трагедии Орлов принимает решение уйти в монастырь, но судьба распоряжается иначе…

Рецензия,отзыв:

Супер, не смотря ни на что!
Первые три серии Спецназа, помнится, посмотрел лет в 15-16. Какое впечатление он на меня тогда произвёл! Ждал не дождался когда же выйдет его обещанное продолжение (а обещали его, как сейчас помню, осенью, через полгода) и так жизнь повернулась, что посмотрел его продолжение, Спецназ-2, только сейчас, по прошествии 11-ти лет.
Про первые три серии мнение ничуть не поменялось: это и обаятельный связной Вагиф, которого сыграл Эвклид Кюрдзидис, и эпохальный диалог «где остальные? — я твой труба шатал, рюзке! — (выстрел в голову). Ответ неправильный!», и харизматичный Гоша Куценко из второй серии, и весёлая концовка третьей.
Но вот что я увидел по первым секундам первой серии второй части! Я чуть было раз и навсегда не разочаровался в сериале и уже подумывал смотреть ли дальше. Качество съёмки — середина 90-ых, сидят в кафе хз для чего, быкуют на случайно задевших прохожих! Плюс ко всему непонятно откуда взявшийся Турчинский (слава богу его дальше не было), и невесть накой нужная баба типа героическая лав-стори, дальше, игрушечные пистолетики (ну это совсем курам насмех), бездарная актёрская сцена захвата самолёта. Да ещё и такой примитивный приём, как «если плохой, то и рожа позлее». Единственное светлое пятно от первой серии второго сезона — это «грейт эскейп» героев с поля брани на самолётике.
Во второй тоже не очень понравилось то, что слишком по-геройски наскоком они напали на базу боевиков. А в остальном очень даже неплохо, особенно с мальчиком-хашишином.
Но третья — это НЕЧТО! ОООЧЕНЬ сильная психологически. Слёзы даже наворачивались. Больные струны задели, во-первых, аллюзией на Беслан, а во-вторых, Косовым. И да, повторюсь, что Kosovo je Srbija.
Ну а четвёртое, как хорошее подытоживание сериала добротной серией.
9 из 10
Минус балл за 1-ую серию второго сезона, множество ляпов, которые, к счастью, не так сильно бросаются в глаза, и некоторые несхождения с жизнью в плане «геройствования».
пс: саундтрек Любэ у меня теперь только с финальными титрами и связан.

MediaInfo:

1 серия

Общее
Уникальный идентификатор : 228062181385463512760921284320361394287 (0xAB932DADABAF6A0EB5B26AF5D427306F)
Полное имя : D:\Фильмы\Россиские фильмы\Спецназ 1,2 (7 серий из 7) 2002-2003 РУ 1 x DVD-9 + 5 X DVD5\Спецназ (2002-2003) (7 серий) [H.264] DVDRip\1_Сломанная стрела.mkv
Формат : Matroska
Версия формата : Version 4 / Version 2
Размер файла : 965 Мбайт
Продолжительность : 50 м.
Общий поток : 2653 Кбит/сек
Дата кодирования : UTC 2010-02-22 21:41:31
Программа кодирования : mkvmerge v5.9.0 ('On The Loose') built on Dec 9 2012 15:37:01
Библиотека кодирования : libebml v1.3.0 + libmatroska v1.4.0
Видео
Идентификатор : 1
Формат : AVC
Формат/Информация : Advanced Video Codec
Профиль формата : [url=mailto:[email protected]][email protected][/url]
Параметр CABAC формата : Да
Параметр ReFrames формата : 4 кадра
Режим смешивания : Header stripping
Идентификатор кодека : V_MPEG4/ISO/AVC
Битрейт : 2408 Кбит/сек
Ширина : 700 пикселей
Высота : 460 пикселей
Соотношение сторон : 1,622
Соотношение сторон в оригинале : 1,623
Режим частоты кадров : Переменный
Цветовое пространство : YUV
Субдискретизация насыщенности : 4:2:0
Битовая глубина : 8 бит
Тип развёртки : Прогрессивная
Библиотека кодирования : x264 core 120
Настройки программы : cabac=1 / ref=1 / deblock=1:0:0 / analyse=0x1:0x111 / me=hex / subme=2 / psy=1 / psy_rd=1.00:0.00 / mixed_ref=0 / me_range=16 / chroma_me=1 / trellis=0 / 8x8dct=0 / cqm=0 / deadzone=21,11 / fast_pskip=1 / chroma_qp_offset=0 / threads=6 / sliced_threads=0 / nr=0 / decimate=1 / interlaced=0 / bluray_compat=0 / constrained_intra=0 / bframes=3 / b_pyramid=2 / b_adapt=1 / b_bias=0 / direct=1 / weightb=1 / open_gop=0 / weightp=1 / keyint=250 / keyint_min=25 / scenecut=40 / intra_refresh=0 / rc_lookahead=10 / rc=crf / mbtree=1 / crf=20.0 / qcomp=0.60 / qpmin=3 / qpmax=69 / qpstep=4 / ip_ratio=1.40 / aq=1:1.00
Язык : Russian
Default : Да
Forced : Нет
Основные цвета : BT.601 NTSC
Характеристики трансфера : BT.709
Коэффициенты матрицы : BT.601
Аудио
Идентификатор : 2
Формат : AC-3
Формат/Информация : Audio Coding 3
Расширение режима : CM (complete main)
Параметр Endianness формата : Big
Режим смешивания : Header stripping
Идентификатор кодека : A_AC3
Продолжительность : 50 м.
Вид битрейта : Постоянный
Битрейт : 192 Кбит/сек
Каналы : 2 канала
Расположение каналов : Front: L R
Частота : 48,0 КГц
Битовая глубина : 16 бит
Метод сжатия : С потерями
Размер потока : 69,8 Мбайт (7%)
Язык : Russian
Default : Да
Forced : Нет

2 серия

Общее
Уникальный идентификатор : 187843975042253795343007616435652093158 (0x8D516F0313072315895E29E92C5B64E6)
Полное имя : D:\Фильмы\Россиские фильмы\Спецназ 1,2 (7 серий из 7) 2002-2003 РУ 1 x DVD-9 + 5 X DVD5\Спецназ (2002-2003) (7 серий) [H.264] DVDRip\2_Засада.mkv
Формат : Matroska
Версия формата : Version 4 / Version 2
Размер файла : 983 Мбайт
Продолжительность : 50 м.
Общий поток : 2731 Кбит/сек
Дата кодирования : UTC 2010-02-22 21:41:31
Программа кодирования : mkvmerge v5.9.0 ('On The Loose') built on Dec 9 2012 15:37:01
Библиотека кодирования : libebml v1.3.0 + libmatroska v1.4.0
Видео
Идентификатор : 1
Формат : AVC
Формат/Информация : Advanced Video Codec
Профиль формата : [url=mailto:[email protected]][email protected][/url]
Параметр CABAC формата : Да
Параметр ReFrames формата : 4 кадра
Режим смешивания : Header stripping
Идентификатор кодека : V_MPEG4/ISO/AVC
Продолжительность : 50 м.
Битрейт : 2484 Кбит/сек
Ширина : 700 пикселей
Высота : 460 пикселей
Соотношение сторон : 1,622
Соотношение сторон в оригинале : 1,623
Режим частоты кадров : Постоянный
Частота кадров : 25,000 кадров/сек
Цветовое пространство : YUV
Субдискретизация насыщенности : 4:2:0
Битовая глубина : 8 бит
Тип развёртки : Прогрессивная
Бит/(Пиксели*Кадры) : 0.309
Размер потока : 894 Мбайт (91%)
Библиотека кодирования : x264 core 120
Настройки программы : cabac=1 / ref=1 / deblock=1:0:0 / analyse=0x1:0x111 / me=hex / subme=2 / psy=1 / psy_rd=1.00:0.00 / mixed_ref=0 / me_range=16 / chroma_me=1 / trellis=0 / 8x8dct=0 / cqm=0 / deadzone=21,11 / fast_pskip=1 / chroma_qp_offset=0 / threads=6 / sliced_threads=0 / nr=0 / decimate=1 / interlaced=0 / bluray_compat=0 / constrained_intra=0 / bframes=3 / b_pyramid=2 / b_adapt=1 / b_bias=0 / direct=1 / weightb=1 / open_gop=0 / weightp=1 / keyint=250 / keyint_min=25 / scenecut=40 / intra_refresh=0 / rc_lookahead=10 / rc=crf / mbtree=1 / crf=20.0 / qcomp=0.60 / qpmin=3 / qpmax=69 / qpstep=4 / ip_ratio=1.40 / aq=1:1.00
Язык : Russian
Default : Да
Forced : Нет
Основные цвета : BT.601 NTSC
Характеристики трансфера : BT.709
Коэффициенты матрицы : BT.601
Аудио
Идентификатор : 2
Формат : AC-3
Формат/Информация : Audio Coding 3
Расширение режима : CM (complete main)
Параметр Endianness формата : Big
Режим смешивания : Header stripping
Идентификатор кодека : A_AC3
Продолжительность : 50 м.
Вид битрейта : Постоянный
Битрейт : 192 Кбит/сек
Каналы : 2 канала
Расположение каналов : Front: L R
Частота : 48,0 КГц
Битовая глубина : 16 бит
Метод сжатия : С потерями
Размер потока : 69,1 Мбайт (7%)
Язык : Russian
Default : Да
Forced : Нет

3 серия

Общее
Уникальный идентификатор : 227028878546735468768937258793268197420 (0xAACC2BEA445B91888B837270D2DCB82C)
Полное имя : D:\Фильмы\Россиские фильмы\Спецназ 1,2 (7 серий из 7) 2002-2003 РУ 1 x DVD-9 + 5 X DVD5\Спецназ (2002-2003) (7 серий) [H.264] DVDRip\3_Клинок.mkv
Формат : Matroska
Версия формата : Version 4 / Version 2
Размер файла : 890 Мбайт
Продолжительность : 51 м.
Общий поток : 2414 Кбит/сек
Дата кодирования : UTC 2010-02-22 21:41:31
Программа кодирования : mkvmerge v5.9.0 ('On The Loose') built on Dec 9 2012 15:37:01
Библиотека кодирования : libebml v1.3.0 + libmatroska v1.4.0
Видео
Идентификатор : 1
Формат : AVC
Формат/Информация : Advanced Video Codec
Профиль формата : [url=mailto:[email protected]][email protected][/url]
Параметр CABAC формата : Да
Параметр ReFrames формата : 4 кадра
Режим смешивания : Header stripping
Идентификатор кодека : V_MPEG4/ISO/AVC
Продолжительность : 51 м.
Битрейт : 2174 Кбит/сек
Ширина : 700 пикселей
Высота : 460 пикселей
Соотношение сторон : 1,622
Соотношение сторон в оригинале : 1,623
Режим частоты кадров : Постоянный
Частота кадров : 25,000 кадров/сек
Цветовое пространство : YUV
Субдискретизация насыщенности : 4:2:0
Битовая глубина : 8 бит
Тип развёртки : Прогрессивная
Бит/(Пиксели*Кадры) : 0.270
Размер потока : 801 Мбайт (90%)
Библиотека кодирования : x264 core 120
Настройки программы : cabac=1 / ref=1 / deblock=1:0:0 / analyse=0x1:0x111 / me=hex / subme=2 / psy=1 / psy_rd=1.00:0.00 / mixed_ref=0 / me_range=16 / chroma_me=1 / trellis=0 / 8x8dct=0 / cqm=0 / deadzone=21,11 / fast_pskip=1 / chroma_qp_offset=0 / threads=6 / sliced_threads=0 / nr=0 / decimate=1 / interlaced=0 / bluray_compat=0 / constrained_intra=0 / bframes=3 / b_pyramid=2 / b_adapt=1 / b_bias=0 / direct=1 / weightb=1 / open_gop=0 / weightp=1 / keyint=250 / keyint_min=25 / scenecut=40 / intra_refresh=0 / rc_lookahead=10 / rc=crf / mbtree=1 / crf=20.0 / qcomp=0.60 / qpmin=3 / qpmax=69 / qpstep=4 / ip_ratio=1.40 / aq=1:1.00
Язык : Russian
Default : Да
Forced : Нет
Основные цвета : BT.601 NTSC
Характеристики трансфера : BT.709
Коэффициенты матрицы : BT.601
Аудио
Идентификатор : 2
Формат : AC-3
Формат/Информация : Audio Coding 3
Расширение режима : CM (complete main)
Параметр Endianness формата : Big
Режим смешивания : Header stripping
Идентификатор кодека : A_AC3
Продолжительность : 51 м.
Вид битрейта : Постоянный
Битрейт : 192 Кбит/сек
Каналы : 2 канала
Расположение каналов : Front: L R
Частота : 48,0 КГц
Битовая глубина : 16 бит
Метод сжатия : С потерями
Размер потока : 70,7 Мбайт (8%)
Язык : Russian
Default : Да
Forced : Нет

4 серия

Общее
Уникальный идентификатор : 172079169596038492103071047114628764417 (0x81753E17F49374AAA5C7E315E87F9301)
Полное имя : D:\Фильмы\Россиские фильмы\Спецназ 1,2 (7 серий из 7) 2002-2003 РУ 1 x DVD-9 + 5 X DVD5\Спецназ (2002-2003) (7 серий) [H.264] DVDRip\4_Покушение.mkv
Формат : Matroska
Версия формата : Version 4 / Version 2
Размер файла : 616 Мбайт
Продолжительность : 51 м.
Общий поток : 1665 Кбит/сек
Дата кодирования : UTC 2010-02-22 21:41:31
Программа кодирования : mkvmerge v5.9.0 ('On The Loose') built on Dec 9 2012 15:37:01
Библиотека кодирования : libebml v1.3.0 + libmatroska v1.4.0
Видео
Идентификатор : 1
Формат : AVC
Формат/Информация : Advanced Video Codec
Профиль формата : [url=mailto:[email protected]][email protected][/url]
Параметр CABAC формата : Да
Параметр ReFrames формата : 4 кадра
Режим смешивания : Header stripping
Идентификатор кодека : V_MPEG4/ISO/AVC
Продолжительность : 51 м.
Битрейт : 1440 Кбит/сек
Ширина : 698 пикселей
Высота : 406 пикселей
Соотношение сторон : 1,85:1
Соотношение сторон в оригинале : 1,85:1
Режим частоты кадров : Постоянный
Частота кадров : 25,000 кадров/сек
Цветовое пространство : YUV
Субдискретизация насыщенности : 4:2:0
Битовая глубина : 8 бит
Тип развёртки : Прогрессивная
Бит/(Пиксели*Кадры) : 0.203
Размер потока : 533 Мбайт (86%)
Библиотека кодирования : x264 core 120
Настройки программы : cabac=1 / ref=1 / deblock=1:0:0 / analyse=0x1:0x111 / me=hex / subme=2 / psy=1 / psy_rd=1.00:0.00 / mixed_ref=0 / me_range=16 / chroma_me=1 / trellis=0 / 8x8dct=0 / cqm=0 / deadzone=21,11 / fast_pskip=1 / chroma_qp_offset=0 / threads=6 / sliced_threads=0 / nr=0 / decimate=1 / interlaced=0 / bluray_compat=0 / constrained_intra=0 / bframes=3 / b_pyramid=2 / b_adapt=1 / b_bias=0 / direct=1 / weightb=1 / open_gop=0 / weightp=1 / keyint=250 / keyint_min=25 / scenecut=40 / intra_refresh=0 / rc_lookahead=10 / rc=crf / mbtree=1 / crf=20.0 / qcomp=0.60 / qpmin=3 / qpmax=69 / qpstep=4 / ip_ratio=1.40 / aq=1:1.00
Язык : Russian
Default : Да
Forced : Нет
Основные цвета : BT.601 NTSC
Характеристики трансфера : BT.709
Коэффициенты матрицы : BT.601
Аудио
Идентификатор : 2
Формат : AC-3
Формат/Информация : Audio Coding 3
Расширение режима : CM (complete main)
Параметр Endianness формата : Big
Режим смешивания : Header stripping
Идентификатор кодека : A_AC3
Продолжительность : 51 м.
Вид битрейта : Постоянный
Битрейт : 192 Кбит/сек
Каналы : 2 канала
Расположение каналов : Front: L R
Частота : 48,0 КГц
Битовая глубина : 16 бит
Метод сжатия : С потерями
Размер потока : 71,0 Мбайт (12%)
Язык : Russian
Default : Да
Forced : Нет

5 серия

Общее
Уникальный идентификатор : 219256343798847655761992287017270382767 (0xA4F33C5D838408E8A4A6AEB8BE4610AF)
Полное имя : D:\Фильмы\Россиские фильмы\Спецназ 1,2 (7 серий из 7) 2002-2003 РУ 1 x DVD-9 + 5 X DVD5\Спецназ (2002-2003) (7 серий) [H.264] DVDRip\5_Дыхание пророка.mkv
Формат : Matroska
Версия формата : Version 4 / Version 2
Размер файла : 797 Мбайт
Продолжительность : 50 м.
Общий поток : 2216 Кбит/сек
Дата кодирования : UTC 2010-02-22 21:41:31
Программа кодирования : mkvmerge v5.9.0 ('On The Loose') built on Dec 9 2012 15:37:01
Библиотека кодирования : libebml v1.3.0 + libmatroska v1.4.0
Видео
Идентификатор : 1
Формат : AVC
Формат/Информация : Advanced Video Codec
Профиль формата : [url=mailto:[email protected]][email protected][/url]
Параметр CABAC формата : Да
Параметр ReFrames формата : 4 кадра
Режим смешивания : Header stripping
Идентификатор кодека : V_MPEG4/ISO/AVC
Продолжительность : 50 м.
Битрейт : 1980 Кбит/сек
Ширина : 692 пикселя
Высота : 414 пикселей
Соотношение сторон : 16:9
Режим частоты кадров : Постоянный
Частота кадров : 25,000 кадров/сек
Цветовое пространство : YUV
Субдискретизация насыщенности : 4:2:0
Битовая глубина : 8 бит
Тип развёртки : Прогрессивная
Бит/(Пиксели*Кадры) : 0.276
Размер потока : 712 Мбайт (89%)
Библиотека кодирования : x264 core 120
Настройки программы : cabac=1 / ref=1 / deblock=1:0:0 / analyse=0x1:0x111 / me=hex / subme=2 / psy=1 / psy_rd=1.00:0.00 / mixed_ref=0 / me_range=16 / chroma_me=1 / trellis=0 / 8x8dct=0 / cqm=0 / deadzone=21,11 / fast_pskip=1 / chroma_qp_offset=0 / threads=6 / sliced_threads=0 / nr=0 / decimate=1 / interlaced=0 / bluray_compat=0 / constrained_intra=0 / bframes=3 / b_pyramid=2 / b_adapt=1 / b_bias=0 / direct=1 / weightb=1 / open_gop=0 / weightp=1 / keyint=250 / keyint_min=25 / scenecut=40 / intra_refresh=0 / rc_lookahead=10 / rc=crf / mbtree=1 / crf=20.0 / qcomp=0.60 / qpmin=3 / qpmax=69 / qpstep=4 / ip_ratio=1.40 / aq=1:1.00
Язык : Russian
Default : Да
Forced : Нет
Основные цвета : BT.601 NTSC
Характеристики трансфера : BT.709
Коэффициенты матрицы : BT.601
Аудио
Идентификатор : 2
Формат : AC-3
Формат/Информация : Audio Coding 3
Расширение режима : CM (complete main)
Параметр Endianness формата : Big
Режим смешивания : Header stripping
Идентификатор кодека : A_AC3
Продолжительность : 50 м.
Вид битрейта : Постоянный
Битрейт : 192 Кбит/сек
Каналы : 2 канала
Расположение каналов : Front: L R
Частота : 48,0 КГц
Битовая глубина : 16 бит
Метод сжатия : С потерями
Размер потока : 69,0 Мбайт (9%)
Язык : Russian
Default : Да
Forced : Нет

6 серия

Общее
Уникальный идентификатор : 179591069240392474409494214059554715795 (0x871BFB5735990DB59432FBD781C73893)
Полное имя : D:\Фильмы\Россиские фильмы\Спецназ 1,2 (7 серий из 7) 2002-2003 РУ 1 x DVD-9 + 5 X DVD5\Спецназ (2002-2003) (7 серий) [H.264] DVDRip\6_Взлетная полоса.mkv
Формат : Matroska
Версия формата : Version 4 / Version 2
Размер файла : 619 Мбайт
Продолжительность : 49 м.
Общий поток : 1747 Кбит/сек
Дата кодирования : UTC 2010-02-22 21:41:31
Программа кодирования : mkvmerge v5.9.0 ('On The Loose') built on Dec 9 2012 15:37:01
Библиотека кодирования : libebml v1.3.0 + libmatroska v1.4.0
Видео
Идентификатор : 1
Формат : AVC
Формат/Информация : Advanced Video Codec
Профиль формата : [url=mailto:[email protected]][email protected][/url]
Параметр CABAC формата : Да
Параметр ReFrames формата : 4 кадра
Режим смешивания : Header stripping
Идентификатор кодека : V_MPEG4/ISO/AVC
Продолжительность : 49 м.
Битрейт : 1520 Кбит/сек
Ширина : 692 пикселя
Высота : 404 пикселя
Соотношение сторон : 1,85:1
Режим частоты кадров : Постоянный
Частота кадров : 25,000 кадров/сек
Цветовое пространство : YUV
Субдискретизация насыщенности : 4:2:0
Битовая глубина : 8 бит
Тип развёртки : Прогрессивная
Бит/(Пиксели*Кадры) : 0.217
Размер потока : 539 Мбайт (87%)
Библиотека кодирования : x264 core 120
Настройки программы : cabac=1 / ref=1 / deblock=1:0:0 / analyse=0x1:0x111 / me=hex / subme=2 / psy=1 / psy_rd=1.00:0.00 / mixed_ref=0 / me_range=16 / chroma_me=1 / trellis=0 / 8x8dct=0 / cqm=0 / deadzone=21,11 / fast_pskip=1 / chroma_qp_offset=0 / threads=6 / sliced_threads=0 / nr=0 / decimate=1 / interlaced=0 / bluray_compat=0 / constrained_intra=0 / bframes=3 / b_pyramid=2 / b_adapt=1 / b_bias=0 / direct=1 / weightb=1 / open_gop=0 / weightp=1 / keyint=250 / keyint_min=25 / scenecut=40 / intra_refresh=0 / rc_lookahead=10 / rc=crf / mbtree=1 / crf=20.0 / qcomp=0.60 / qpmin=3 / qpmax=69 / qpstep=4 / ip_ratio=1.40 / aq=1:1.00
Язык : Russian
Default : Да
Forced : Нет
Основные цвета : BT.601 NTSC
Характеристики трансфера : BT.709
Коэффициенты матрицы : BT.601
Аудио
Идентификатор : 2
Формат : AC-3
Формат/Информация : Audio Coding 3
Расширение режима : CM (complete main)
Параметр Endianness формата : Big
Режим смешивания : Header stripping
Идентификатор кодека : A_AC3
Продолжительность : 49 м.
Вид битрейта : Постоянный
Битрейт : 192 Кбит/сек
Каналы : 2 канала
Расположение каналов : Front: L R
Частота : 48,0 КГц
Битовая глубина : 16 бит
Метод сжатия : С потерями
Размер потока : 68,0 Мбайт (11%)
Язык : Russian
Default : Да
Forced : Нет

7 серия

Общее
Уникальный идентификатор : 176189987278704818477037866953479596723 (0x848CF50DB05D348F8F55DDF0D774AAB3)
Полное имя : D:\Фильмы\Россиские фильмы\Спецназ 1,2 (7 серий из 7) 2002-2003 РУ 1 x DVD-9 + 5 X DVD5\Спецназ (2002-2003) (7 серий) [H.264] DVDRip\7_Послушник.mkv
Формат : Matroska
Версия формата : Version 4 / Version 2
Размер файла : 573 Мбайт
Продолжительность : 44 м.
Общий поток : 1811 Кбит/сек
Дата кодирования : UTC 2010-02-22 21:41:31
Программа кодирования : mkvmerge v5.9.0 ('On The Loose') built on Dec 9 2012 15:37:01
Библиотека кодирования : libebml v1.3.0 + libmatroska v1.4.0
Видео
Идентификатор : 1
Формат : AVC
Формат/Информация : Advanced Video Codec
Профиль формата : [url=mailto:[email protected]][email protected][/url]
Параметр CABAC формата : Да
Параметр ReFrames формата : 4 кадра
Режим смешивания : Header stripping
Идентификатор кодека : V_MPEG4/ISO/AVC
Продолжительность : 44 м.
Битрейт : 1583 Кбит/сек
Ширина : 692 пикселя
Высота : 414 пикселей
Соотношение сторон : 16:9
Режим частоты кадров : Постоянный
Частота кадров : 25,000 кадров/сек
Цветовое пространство : YUV
Субдискретизация насыщенности : 4:2:0
Битовая глубина : 8 бит
Тип развёртки : Прогрессивная
Бит/(Пиксели*Кадры) : 0.221
Размер потока : 501 Мбайт (87%)
Библиотека кодирования : x264 core 120
Настройки программы : cabac=1 / ref=1 / deblock=1:0:0 / analyse=0x1:0x111 / me=hex / subme=2 / psy=1 / psy_rd=1.00:0.00 / mixed_ref=0 / me_range=16 / chroma_me=1 / trellis=0 / 8x8dct=0 / cqm=0 / deadzone=21,11 / fast_pskip=1 / chroma_qp_offset=0 / threads=6 / sliced_threads=0 / nr=0 / decimate=1 / interlaced=0 / bluray_compat=0 / constrained_intra=0 / bframes=3 / b_pyramid=2 / b_adapt=1 / b_bias=0 / direct=1 / weightb=1 / open_gop=0 / weightp=1 / keyint=250 / keyint_min=25 / scenecut=40 / intra_refresh=0 / rc_lookahead=10 / rc=crf / mbtree=1 / crf=20.0 / qcomp=0.60 / qpmin=3 / qpmax=69 / qpstep=4 / ip_ratio=1.40 / aq=1:1.00
Язык : Russian
Default : Да
Forced : Нет
Основные цвета : BT.601 NTSC
Характеристики трансфера : BT.709
Коэффициенты матрицы : BT.601
Аудио
Идентификатор : 2
Формат : AC-3
Формат/Информация : Audio Coding 3
Расширение режима : CM (complete main)
Параметр Endianness формата : Big
Режим смешивания : Header stripping
Идентификатор кодека : A_AC3
Продолжительность : 44 м.
Вид битрейта : Постоянный
Битрейт : 192 Кбит/сек
Каналы : 2 канала
Расположение каналов : Front: L R
Частота : 48,0 КГц
Битовая глубина : 16 бит
Метод сжатия : С потерями
Размер потока : 60,7 Мбайт (11%)
Язык : Russian
Default : Да
Forced : Нет
Скриншоты:
         
         
Время раздачи: С 23:00 до 17:00 (по московскому времени)
Other forum [Profile] [PM]
Display posts from previous:    
Reply to topic

The time now is: Today 06:15

All times are GMT + 3 Hours



You cannot post new topics in this forum
You cannot reply to topics in this forum
You cannot edit your posts in this forum
You cannot delete your posts in this forum
You cannot vote in polls in this forum
You cannot attach files in this forum
You cannot download files in this forum