Today is a free download without charge Download

Пятая стража (1-10 серии из 64) (2013) SATRip [Обновляемая]

Reply to topic
 
Author
Message

UndegraundMen ®

Longevity: 8 years 9 months

Posts: 25145

Торрент-статистика

Post 04-Mar-2013 06:24

[Quote]

Пятая стража (1-10 серии из 64) (2013) SATRip- Русское название: Пятая стража
Год выпуска: 2013
Производство: Россия
Жанр: Фантастика, детектив
Режиссер: Василий Пичул
Сценарий: Галина Полынская
Актеры: Кирилл Козаков, Майя Вознесенская, Матвей Матвеев (II), Ирина Виноградова (III), Ростислав Бершауэр, Олег Семисынов, Егор Вадов, Полина Манохина, Станислав Любшин, Регимантас Адомайтис, Константин Днепровский, Анатолий Петченко, Олег Лебедев-Бовольский
Описание фильма:
Вампир Феликс был отправлен силами Тьмы в ссылку в город Светлогорск. Графу Дракуле было предсказано, что падет он от руки своего соратника, вампира, и именно он, Феликс, мог прервать путь Графа Тьмы. Появление Феликса в Светлогорске сопровождали, чума, многие смерти и разорение. Немало бед навлек он на городок.
Силы Света заточили Феликса в пещере, где он находился целых пять веков. И вот вампир вышел на свободу. Но теперь мысль о служении Тьме противна ему и Феликс выбрал Добро. В городке Светлогорске он открыл детективное агентство, подобрав команду из таких же как и он — не просто людей, а раскаявшихся грешников, которые готовы стоять на защите Света и Добра. Вместе они расследуют злодеяния, которые ежедневно совершаются силами тьмы и хранят покой города Светлогорска, которому суждено стать меcтом, где пройдет решающе сражение между силами Тьмы и Света…

Продолжительность: ~ 00:45:00 серия
Качество видео: SATRip
Видеокодек: DivX
Битрейт видео: ~ 1500 Кбит/сек
Размер кадра: 720х400
Аудио: Русский, МР3, 2 ch, 128 Кбит/с

Внимание! Раздача ведётся путём добавления новых серий. Описание обновления торрента:

Внимание!
Раздача ведётся путём добавления новых серий; при каждом добавлении создётся новый торрент. Чтобы начать докачку новой серии, пользователям необходимо сделать следующее:
(1) остановить скачивание,
(2) удалить старый торрент у себя из клиента (старые серии удалять не надо),
(3) скачать новый торрент и запустить его у себя в клиенте вместо старого, при этом указать клиенту путь в старую папку куда и должно происходить скачивание новых серий.
Ваш клиент при этом должен произвести хеширование (проверку) старой папки (если не производит сам - помогите ему сделать это), и будет докачивать только те серии которых у вас ещё нет. Старые серии при этом не удаляются, а продолжают раздаваться!
Eсли вы уже удалили старые серии, то предотвратить повторную закачку старых серий можно, отжав галочку в соответсвующих местах при запуске нового торрента. По возможности, желательно не удалять старые серии как можно дольше чтобы релизёр не столько продолжал раздавать старые серии, а смог сконцентрироваться на новых.

MediaInfo

Код:
Общее
Полное имя                               : E:\Раздачи\Обновляемые\Пятая стража\Pyataya.strazha.01.avi
Формат                                   : AVI
Формат/Информация                        : Audio Video Interleave
Размер файла                             : 560 Мбайт
Продолжительность                        : 47 м.
Общий поток                              : 1636 Кбит/сек
Программа кодирования                    : VirtualDubMod 1.5.10.2 (build 2540/release)
Библиотека кодирования                   : VirtualDub build 29808/release
Видео
Идентификатор                            : 0
Формат                                   : MPEG-4 Visual
Параметр BVOP формата                    : 1
Параметр QPel формата                    : Нет
Параметр GMC формата                     : Без точки перехода
Параметр матрицы формата                 : Default (H.263)
Режим смешивания                         : Сжатый битовый поток
Идентификатор кодека                     : DX50
Идентификатор кодека/Подсказка           : DivX 5
Продолжительность                        : 47 м.
Битрейт                                  : 1498 Кбит/сек
Ширина                                   : 720 пикселей
Высота                                   : 400 пикселей
Соотношение сторон                       : 16:9
Частота кадров                           : 25,000 кадров/сек
Цветовое пространство                    : YUV
Субдискретизация насыщенности            : 4:2:0
Битовая глубина                          : 8 бит
Тип развёртки                            : Прогрессивная
Метод сжатия                             : С потерями
Бит/(Пиксели*Кадры)                      : 0.208
Размер потока                            : 513 Мбайт (92%)
Библиотека кодирования                   : DivX 6.8.5 (UTC 2009-08-20)
Аудио
Идентификатор                            : 1
Формат                                   : MPEG Audio
Версия формата                           : Version 1
Профиль формата                          : Layer 3
Режим                                    : Joint stereo
Идентификатор кодека                     : 55
Идентификатор кодека/Подсказка           : MP3
Продолжительность                        : 47 м.
Вид битрейта                             : Постоянный
Битрейт                                  : 128 Кбит/сек
Каналы                                   : 2 канала
Частота                                  : 48,0 КГц
Метод сжатия                             : С потерями
Размер потока                            : 43,8 Мбайт (8%)
Выравнивание                             : Соединение по промежуткам
Продолжительность промежутка             : 40  мс. (1,00 видеокадр)
Время предзагрузки промежутка            : 504  мс.
Библиотека кодирования                   : LAME3.90.3
Скриншоты:
         
         -
Other forum [Profile] [PM]
Display posts from previous:    
Reply to topic

The time now is: Today 05:34

All times are GMT + 3 Hours



You cannot post new topics in this forum
You cannot reply to topics in this forum
You cannot edit your posts in this forum
You cannot delete your posts in this forum
You cannot vote in polls in this forum
You cannot attach files in this forum
You cannot download files in this forum