Today is a free download without charge Download

Воронины (Сезон 13, серии 239-242) (2013) SATRip [Обновляемая]

Reply to topic
 
Author
Message

UndegraundMen ®

Longevity: 8 years 9 months

Posts: 25145

Торрент-статистика

Post 04-Mar-2013 06:24

[Quote]

Воронины (Сезон 13, серии 239-242) (2013) SATRip [Обновляемая]- Русское название: Воронины
Год выпуска: 2013
Жанр: Комедия
Режиссер: Александр Жигалкин
Актеры: Георгий Дронов, Екатерина Волкова, Станислав Дужников, Борис Клюев, Анна Фроловцева, Кирилл Воробьёв, Филипп Воробьёв, Мария Ильюхина, Галина Стаханова, Алексей Якубов, Ольга Богданова, Татьяна Борисова, Михаил Васьков, Наталья Винтилова, Александр Гришаев, Ирина Даниленко, Людмила Дмитриева, Ирина Ефремова, Олег Кассин, Юлия Куварзина, Олег Лопухов, Виктория Лукина, Ольга Милоянина, Елена Николаева, Татьяна Орлова, Галина Петрова, Анастасия Сапожникова, Янина Студилина, Андрей Ургант, Дарья Хорошилова
Описание фильма:
Действие сериала разворачивается в одной московской «сталинке», где в трехкомнатной квартире живет молодая семья. Главные герои — молодая женщина Вера, ее муж Костя, два полугодовалых сына-близнеца и пятилетняя дочурка. Вроде бы, полная идиллия, жизнь удалась. Но не тут-то было! Ведь на одной с ними лестничной клетке живут родители Кости, которые и создают массу проблем нашим героям.
Продолжительность: 4 x ~00:25:00
Качество видео: SATRip
Видеокодек: Xvid
Битрейт видео: ~1801 kb/s
Размер кадра: 720x528
Аудиокодек: MP3 2.0
Битрейт аудио: 128 kb/s

MediaInfo

Полное имя : I:\Voroniny.Season.13.SATRip\Voroniny.240.SATRip.avi
Формат : AVI
Формат/Информация : Audio Video Interleave
Размер файла : 324 Мбайт
Продолжительность : 23 м.
Общий поток : 1938 Кбит/сек
Библиотека кодирования : VirtualDub build 32706/release
Видео
Идентификатор : 0
Формат : MPEG-4 Visual
Профиль формата : Advanced [email protected]
Параметр BVOP формата : 2
Параметр QPel формата : Нет
Параметр GMC формата : Без точки перехода
Параметр матрицы формата : Default (MPEG)
Идентификатор кодека : XVID
Идентификатор кодека/Подсказка : XviD
Продолжительность : 23 м.
Битрейт : 1801 Кбит/сек
Ширина : 720 пикс.
Высота : 528 пикс.
Соотношение сторон : 4:3
Частота кадров : 25,000 кадр/сек
Цветовое пространство : YUV
Подвыборка цветности : 4:2:0
Битовая глубина : 8 бит
Тип развёртки : Прогрессивная
Метод сжатия : С потерями
Бит/(Пиксели*Кадры) : 0.189
Размер потока : 301 Мбайт (93%)
Библиотека кодирования : XviD 1.2.1 (UTC 2008-12-04)
Аудио
Идентификатор : 1
Формат : MPEG Audio
Версия формата : Version 1
Профиль формата : Layer 3
Режим : Joint stereo
Расширение режима : MS Stereo
Идентификатор кодека : 55
Идентификатор кодека/Подсказка : MP3
Продолжительность : 23 м.
Вид битрейта : Постоянный
Битрейт : 128 Кбит/сек
Канал(ы) : 2 канала(ов)
Частота : 48,0 КГц
Метод сжатия : С потерями
Размер потока : 21,4 Мбайт (7%)
Выравнивание : Разделение по промежуткам
Продолжительность промежутка : 40 мс. (1,00 видеокадр)
Время предзагрузки промежутка : 500 ms
Скриншоты:
             
Other forum [Profile] [PM]
Display posts from previous:    
Reply to topic

The time now is: Today 04:46

All times are GMT + 3 Hours



You cannot post new topics in this forum
You cannot reply to topics in this forum
You cannot edit your posts in this forum
You cannot delete your posts in this forum
You cannot vote in polls in this forum
You cannot attach files in this forum
You cannot download files in this forum