Today is a free download without charge Download

Принцип Хабарова [16 серий из 16] (2013) SATRip

Reply to topic
 
Author
Message

UndegraundMen ®

Longevity: 8 years 9 months

Posts: 25145

Торрент-статистика

Post 04-Mar-2013 06:24

[Quote]

Принцип Хабарова [16 серий из 16] (2013) SATRip- Русское название: Принцип Хабарова
Производство: Россия, Студия Панорама
Год выпуска: 2013
Жанр: Детектив, Криминал
Перевод: Не требуется (Русский)

Дата российской премьеры: 25 февраля 2013
Режиссер: Андрей Щербинин
Актеры: Александр Марушев, Даниил Страхов, Людмила Харитонова, Игорь Николаев, Екатерина Зорина, Александр Блок, Роман Грибков, Юлия Рудина, Михаил Батуев, Александра Мареева, Юлия Нижельская, Наталья Иохвидова, Серафима Низовская, Диана Дезмари, Руслан Кацагаджиев, Алина Кикеля, Данила Воропаев, Сергей Гарусов, Сергей Рублёв, Александр Овчинников, Андрей Бордухаев, Сергей Воробьёв
Описание фильма:
На улице недалеко от своего дома от руки наёмного убийцы погибает близкий друг и заместитель начальника отдельной оперативно-следственной группы ГУВД полковника Хабарова. Его смерть заставляет полковника отложить на будущее планы выхода на пенсию. Расследование убийства он вынужден начать вместе с новым подчинённым - майором Ершовым, которого неуживчивому полковнику навязывает руководство. Первые же совместные шаги полицейских показали, что сработаться им будет очень непросто. Опытный, уверенный в своих силах Ершов во всём привык полагаться на самого себя, но Хабаров, сам обладающий независимым характером, не станет спокойно мириться со своеволием подчинённого, а методы, которыми пользуется Ершов, иногда кажутся ему просто возмутительными. Тем не менее, со временем складывается своеобразный дуэт двух этих незаурядных детективов и, хотя трения между ними не утихают, каждое новое дело становится доказательством их высокого профессионализма.
Продолжительность: 16 х ~ 00:43:31 серия
Качество видео: SATRip
Видеокодек: DivX 5
Битрейт видео: ~1597 Kbit/s
Размер кадра: 704 х 400
Аудиокодек: MP3, 2.0
Битрейт аудио: 128 Kbit/s

MediaInfo

Общее
Полное имя : D:ТоррентыФИЛЬМЫ торентаПринцип Хабарова. 2013. SATRipПринцип Хабарова.01.avi
Формат : AVI
Формат/Информация : Audio Video Interleave
Размер файла : 541 Мбайт
Продолжительность : 43 м.
Общий поток : 1738 Кбит/сек
Библиотека кодирования : Boilsoft AVI tool build 30012/release
Видео
Идентификатор : 0
Формат : MPEG-4 Visual
Профиль формата : [email protected]
Параметр BVOP формата : Нет
Параметр QPel формата : Нет
Параметр GMC формата : Без точки перехода
Параметр матрицы формата : Default (H.263)
Идентификатор кодека : DX50
Идентификатор кодека/Подсказка : DivX 5
Продолжительность : 43 м.
Битрейт : 1597 Кбит/сек
Ширина : 704 пикс.
Высота : 400 пикс.
Соотношение сторон : 16:9
Частота кадров : 25,000 кадр/сек
Цветовое пространство : YUV
Подвыборка цветности : 4:2:0
Битовая глубина : 8 бит
Тип развёртки : Прогрессивная
Метод сжатия : С потерями
Бит/(Пиксели*Кадры) : 0.227
Размер потока : 497 Мбайт (92%)
Библиотека кодирования : XviD 1.2.1 (UTC 2008-12-04)
Аудио
Идентификатор : 1
Формат : MPEG Audio
Версия формата : Version 1
Профиль формата : Layer 3
Режим : Joint stereo
Расширение режима : MS Stereo
Идентификатор кодека : 55
Идентификатор кодека/Подсказка : MP3
Продолжительность : 43 м.
Вид битрейта : Постоянный
Битрейт : 128 Кбит/сек
Каналы : 2 канала
Частота : 48,0 КГц
Метод сжатия : С потерями
Размер потока : 39,8 Мбайт (7%)
Выравнивание : Соединение по промежуткам
Продолжительность промежутка : 24 мс. (0,60 видеокадр)
Время предзагрузки промежутка : 504 ms
Библиотека кодирования : LAME3.98.2
Скриншоты:
           
Время раздачи: 24/7 по возможности [url=/forum/viewtopic.php?t=625515]Принцип Хабарова / Заклятые друзья (1-16 серии из 16) (2013) DVB[/url]
Other forum [Profile] [PM]
Display posts from previous:    
Reply to topic

The time now is: Today 16:49

All times are GMT + 3 Hours



You cannot post new topics in this forum
You cannot reply to topics in this forum
You cannot edit your posts in this forum
You cannot delete your posts in this forum
You cannot vote in polls in this forum
You cannot attach files in this forum
You cannot download files in this forum