Today is a free download without charge Download

Контригра (1-8 серии из 8) (2011) DVB

Reply to topic
 
Author
Message

UndegraundMen ®

Longevity: 8 years 9 months

Posts: 25145

Торрент-статистика

Post 04-Mar-2013 06:24

[Quote]

Контригра (1-8 серии из 8) (2011) DVB- Оригинальное название: Контригра
Год выпуска: 2011
Страна: Россия / Арт-студия
Жанр: военный, история-
Премьера (РФ): 5 сентября 2011 (Россия-1)
Режиссер: Елена Николаева
Актеры: Михаил Пореченков, Юлия Снигирь, Сергей Гармаш, Даниил Спиваковский, Мария Порошина, Сергей Астахов, Галина Польских, Валерий Баринов, Вениамин Смехов, Мартиньш Вилсонс, Артём Михалков, Петар Зекавица, Полина Сидихина, Леван Мсхиладзе, Вячеслав Гришечкин, Олеся Судзиловская, Ольга Сумская, Игорь Скурихин, Александр Тютин, Сергей Юшкевич, Сергей Газаров, Андрей Межулис, Сергей Варчук, Александр Мякушко, Виктор Сарайкин, Рашид Тугушев, Александр Зуев, Алексей Огурцов, Яна Сексте, Алексей Рудаков, Михаил Станкевич, Геннадий Землянский, Олег Заболотный, Юрий Митрофанов, Владимир Жарников, Александр Базоев, Евгений Березовский
Описание фильма:
Вторая мировая война закончилась безоговорочной капитуляцией со стороны фашисткой Германии. Но не все военные преступники были пойманы: часть из них все еще скрывалась в союзных странах по поддельным документам. Эти люди шли на все, чтобы избежать правосудия: меняли имена и фамилии, колдовали над своей внешностью, платили безумные взятки государственным лицам. Но все было тщетно: главные военные преступники были пойманы и преданы суду. Это событие вошло в историю под названием Нюрнбергского процесса. Страны-союзники организовали международный суд, на котором большая судейская коллегия разбирала каждый случай военного преступления. Были учтены все детали, каждая жертва, которая погибла от руки палача. В русском сериале "Нюрнберг. Контригра" вы сможете лично принять участие в этом суде в качестве наблюдателя. Перед вами пронесутся судьбы как жертв преступления, так и жизни самих военных преступников..…-Продолжительность: серия ~ 00:49
Качество видео: DVB
Видеокодек: MPEG2
Битрейт видео: ~5359 kbps
Размер кадра: 720x576**768х576 (4:3)
Аудиокодек: MPEG1 Layer 2
Аудио: 48.0 kHz, 2 ch ~256 Kbps
Субтитры: отсутствуют

Media Info:

Формат : MPEG-PS
Размер файла : 1,75 Гбайт
Продолжительность : 43 м.
Режим общего битрейта : Переменный
Общий поток : 5729 Кбит/сек
Видео
Идентификатор : 224 (0xE0)
Формат : MPEG Video
Версия формата : Version 2
Профиль формата : [email protected]
Параметр BVOP формата : Да
Параметр матрицы формата : Выборочная
Продолжительность : 43 м.
Вид битрейта : Переменный
Битрейт : 5359 Кбит/сек
Максимальный битрейт : 10000 Кбит/сек
Ширина : 720 пикселей
Высота : 576 пикселей
Соотношение сторон : 4:3
Частота кадров : 25,000 кадров/сек
Стандарт вещания : PAL
Цветовое пространство : YUV
Субдискретизация насыщенности : 4:2:0
Битовая глубина : 8 бит
Тип развёртки : Чересстрочная
Порядок развёртки : Верхнее поле первое
Метод сжатия : С потерями
Бит/(Пиксели*Кадры) : 0.517
Размер потока : 1,64 Гбайт (94%)
Аудио
Идентификатор : 192 (0xC0)
Формат : MPEG Audio
Версия формата : Version 1
Профиль формата : Layer 2
Продолжительность : 43 м.
Вид битрейта : Постоянный
Битрейт : 256 Кбит/сек
Каналы : 2 канала
Частота : 48,0 КГц
Метод сжатия : С потерями
Задержка видео : -40 мс.
Размер потока : 80,2 Мбайт (4%)
Скриншоты:
         
         
[url=/forum/tracker.php?f=769&nm=%D0%9A%D0%BE%D0%BD%D1%82%D1%80%D0%B8%D0%B3%D1%80%D0%B0]Контригра (1-8 серии из 8) (2011)[/url]24/7
Other forum [Profile] [PM]
Display posts from previous:    
Reply to topic

The time now is: Today 05:10

All times are GMT + 3 Hours



You cannot post new topics in this forum
You cannot reply to topics in this forum
You cannot edit your posts in this forum
You cannot delete your posts in this forum
You cannot vote in polls in this forum
You cannot attach files in this forum
You cannot download files in this forum