Today is a free download without charge Download

Морские дьяволы. Смерч (1-32 серии из 32) (2013) DVB

Reply to topic
 
Author
Message

UndegraundMen ®

Longevity: 8 years 9 months

Posts: 25145

Торрент-статистика

Post 04-Mar-2013 06:24

[Quote]

Морские дьяволы. Смерч (1-32 серии из 32) (2013) DVB -
Оригинальное название: Морские дьяволы. Смерч
Год выпуска: 2013
Страна: Россия / Гамма-продакшн
Жанр: криминал-
Премьера (РФ): 4 февраля 2013 (НТВ)
Режиссер: Сергей Васильев, Станислав Дремов, Алексей Гусев
Актеры: Олег Чернов, Дарья Юргенс, Антон Гуляев, Владимир Ярош, Дарья Циберкина, Игорь Григорьев, Михаил Елисеев, Анна Пескова, Антон Пулит, Анатолий Журавлёв, Юрий Кузнецов, Константин Воробьёв, Виталий Кравченко, Руслан Лукьянов, Артур Федынко, Дмитрий Быковский-Ромашов, Михаил Сидаш, Сергей Шкарбан, Алексей Ревякин, Юрий Батурин, Дмитрий Лебедев, Оксана Скакун, Алексей Величко, Руслан Кацагаджиев, Олег Панин, Дмитрий Кочкин, Арсений Бойко, Алексей Симонов, Сергей Маркеев, Олег Малышев, Павел Миронов, Олег Морозов, Константин Клюквин, Юрий Елагин, Александр Петров

Описание фильма: В целях противодействия возникшим террористическим угрозам, при Контртеррористическом Центре создается спецподразделение "Смерч", возглавить которое предложили контр-адмиралу Булатову (Батя). Он формирует боевую группу. В нее вошли знакомые ему по "Тайфуну" Багира и Кот, а также младший лейтенант ФСБ Евгения Мурашова (Мура). Бесстрашную команду «дьяволов» ждут еще более коварные враги, новые опасные задания, а работа для них найдется и на суше, ведь теперь они — элитное сухопутное подразделение, созданное для противостояния новым террористическим угрозам. Одно останется прежним: и на море, и на суше — для противника они по-прежнему настоящее стихийное бедствие!...-Продолжительность: серия ~ 00:42
Качество видео: DVB
Видеокодек: MPEG2
Битрейт видео: ~5141 kbps avg
Размер кадра: 720x576 (4:3), 25.000 fps
Аудиокодек: MPEG Audio Layer 2
Аудио: 48 kHz, 2 ch, ~192 kbps avg
Субтитры: отсутствуют

.

MediaInfo:

Формат : MPEG-PS
Размер файла : 1,73 Гбайт
Продолжительность : 45 м.
Режим общего битрейта : Переменный
Общий поток : 5442 Кбит/сек
Библиотека кодирования : (c) 1998-2012 Womble Multimedia, Inc. / MPEG Video Wizard DVD 5.0.1.100 (03/2011) / Sep 7 2012
Видео
Идентификатор : 224 (0xE0)
Формат : MPEG Video
Версия формата : Version 2
Профиль формата : [email protected]
Параметр BVOP формата : Да
Параметр матрицы формата : Выборочная
Параметр GOP формата : Variable
Продолжительность : 45 м.
Вид битрейта : Переменный
Битрейт : 5141 Кбит/сек
Максимальный битрейт : 15,0 Мбит/сек
Ширина : 720 пикселей
Высота : 576 пикселей
Соотношение сторон : 4:3
Частота кадров : 25,000 кадров/сек
Стандарт вещания : PAL
Цветовое пространство : YUV
Субдискретизация насыщенности : 4:2:0
Битовая глубина : 8 бит
Тип развёртки : Чересстрочная
Порядок развёртки : Верхнее поле первое
Метод сжатия : С потерями
Бит/(Пиксели*Кадры) : 0.496
Размер потока : 1,64 Гбайт (94%)
Аудио
Идентификатор : 192 (0xC0)
Формат : MPEG Audio
Версия формата : Version 1
Профиль формата : Layer 2
Продолжительность : 45 м.
Вид битрейта : Постоянный
Битрейт : 192 Кбит/сек
Каналы : 2 канала
Частота : 48,0 КГц
Метод сжатия : С потерями
Размер потока : 62,6 Мбайт (4%)
Скриншоты:
         
         
[url=/forum/tracker.php?f=769&nm=%D0%9C%D0%BE%D1%80%D1%81%D0%BA%D0%B8%D0%B5%20%D0%B4%D1%8C%D1%8F%D0%B2%D0%BE%D0%BB%D1%8B]Морские дьяволы[/url]Время раздачи: 24/7
Other forum [Profile] [PM]
Display posts from previous:    
Reply to topic

The time now is: Today 05:50

All times are GMT + 3 Hours



You cannot post new topics in this forum
You cannot reply to topics in this forum
You cannot edit your posts in this forum
You cannot delete your posts in this forum
You cannot vote in polls in this forum
You cannot attach files in this forum
You cannot download files in this forum