Today is a free download without charge Download

Beruseruku: Ougon jidaihen I - Haou no tamago / Berserk Golden Age Arc: The Egg / Берсерк. Золотой век: Фильм I. Бехерит Властителя [2012, MV, 1 из 3] BDrip 304p eng+rus

Reply to topic
 
Author
Message

UndegraundMen ®

Longevity: 8 years 11 months

Posts: 25145

Торрент-статистика

Post 04-Mar-2013 06:20

[Quote]

ベルセルク 黄金時代篇Ⅰ覇王の卵 / Beruseruku: Ougon jidaihen I - Haou no tamago / Berserk Golden Age Arc: The Egg / Берсерк. Золотой век: Фильм I. Бехерит Властителя- Русское название: Берсерк. Золотой век: Фильм I. Бехерит Властителя
Оригинальное название: Beruseruku: Ougon jidaihen I - Haou no tamago
Производство: Япония / Magnolia Pictures, StudioCanal, 2929 Production
Год выпуска: 2012
Жанр: Приключения, Фэнтези, Драма
Описание:
Жизнь знаменитого своей силой и жестокостью наемника Гатса меняется после встречи с Гриффитсом, харизматичным вожаком легендарного отряда Соколов — банды, ни разу не терпевшей поражения в бою. Желая оправдать доверие Гриффитса, Гатс проявляет невиданную доблесть и завоевывает уважение соратников, в том числе Каски, единственной в отряде девушки-мечника. Поддержанные Гатсом успехи Гриффитса преследуют некую цель, однако каких жертв будет стоить достижение этой цели, пока неведомо никому из наших героев.
Режиссер: Тосиюки Кубоока
Автор оригинала: Миура Кэнтаро
Актёры озвучки: Кевин Коллинз, Джесси Корти, Колин ДеПаула, Марк Дирайсон, Шинго Эгами, Даг Эрхольц, Такахиро Фудзивара, Хироаки Иванага, Ясунобу Ивата, Юки Кадзи
Продолжительность: 01:16:49
Перевод: Дублированный [лицензия]
Субтитры: Отсутствуют

Дата мировой премьеры: 4 февраля 2012
Дата российской премьеры: 26 апреля 2012, «Reanimedia»
Дата выхода DVD релиза: 19 февраля 2013, «Reanimedia»
Дата выхода Blu-Ray релиза: 19 февраля 2013, «Reanimedia»
Видеокодек: Xvid
Битрейт видео: ~1635 Kbit/s
Размер кадра: 720 x 304
Качество видео: BDrip
Aудио #1: AC3, 48,0 КHz, 5.1, 448 Kbit/s - Русский
Aудио #2: AC3, 48,0 КHz, 5.1, 448 Kbit/s - Aнглийский

MediaInfo

Общее
Полное имя : D:ТоррентыБерсерк. Золотой век Фильм I. Бехерит Властителя.2012.HDRip.avi
Формат : AVI
Формат/Информация : Audio Video Interleave
Размер файла : 1,37 Гбайт
Продолжительность : 1 ч. 16 м.
Общий поток : 2545 Кбит/сек
Программа кодирования : VirtualDubMod 1.5.10.2 (build 2540/release)
Библиотека кодирования : VirtualDubMod build 2540/release
Видео
Идентификатор : 0
Формат : MPEG-4 Visual
Профиль формата : Advanced [email protected]
Параметр BVOP формата : Нет
Параметр QPel формата : Нет
Параметр GMC формата : Без точки перехода
Параметр матрицы формата : Выборочная
Идентификатор кодека : XVID
Идентификатор кодека/Подсказка : XviD
Продолжительность : 1 ч. 16 м.
Битрейт : 1635 Кбит/сек
Ширина : 720 пикс.
Высота : 304 пикс.
Соотношение сторон : 2,35:1
Частота кадров : 23,976 кадр/сек
Цветовое пространство : YUV
Подвыборка цветности : 4:2:0
Битовая глубина : 8 бит
Тип развёртки : Прогрессивная
Метод сжатия : С потерями
Бит/(Пиксели*Кадры) : 0.312
Размер потока : 898 Мбайт (64%)
Библиотека кодирования : XviD 1.2.1 (UTC 2008-12-04)
Аудио #1
Идентификатор : 1
Формат : AC-3
Формат/Информация : Audio Coding 3
Расширение режима : CM (complete main)
Идентификатор кодека : 2000
Продолжительность : 1 ч. 16 м.
Вид битрейта : Постоянный
Битрейт : 448 Кбит/сек
Каналы : 6 каналов
Расположение каналов : Front: L C R, Side: L R, LFE
Частота : 48,0 КГц
Битовая глубина : 16 бит
Метод сжатия : С потерями
Размер потока : 246 Мбайт (18%)
Выравнивание : Разделение по промежуткам
Продолжительность промежутка : 42 мс. (1,00 видеокадр)
Время предзагрузки промежутка : 500 ms
Аудио #2
Идентификатор : 2
Формат : AC-3
Формат/Информация : Audio Coding 3
Расширение режима : CM (complete main)
Идентификатор кодека : 2000
Продолжительность : 1 ч. 16 м.
Вид битрейта : Постоянный
Битрейт : 448 Кбит/сек
Каналы : 6 каналов
Расположение каналов : Front: L C R, Side: L R, LFE
Частота : 48,0 КГц
Битовая глубина : 16 бит
Метод сжатия : С потерями
Размер потока : 246 Мбайт (18%)
Выравнивание : Разделение по промежуткам
Продолжительность промежутка : 42 мс. (1,00 видеокадр)
Время предзагрузки промежутка : 500 ms
Скриншоты:
           
Время раздачи: 24/7 по возможностиБерсерк. Золотой век на NoNaMe Club
Other forum [Profile] [PM]
Display posts from previous:    
Reply to topic

The time now is: Today 07:04

All times are GMT + 3 Hours



You cannot post new topics in this forum
You cannot reply to topics in this forum
You cannot edit your posts in this forum
You cannot delete your posts in this forum
You cannot vote in polls in this forum
You cannot attach files in this forum
You cannot download files in this forum