Today is a free download without charge Download

Discovery: Сложный вопрос / The Big Question (2004) TVRip [5 из 5]

Reply to topic
 
Author
Message

UndegraundMen ®

Longevity: 7 years 7 months

Posts: 25145

Торрент-статистика

Post 04-Mar-2013 06:16

[Quote]

Discovery: Сложный вопрос / The Big Question (2004) TVRip [5 из 5]- Русское название: Discovery: Сложный вопрос
Оригинальное название: The Big Question
Режиссер / Телекомпания: Martin Gorst, Channel 5 Broadcasting
Год выпуска: 2004
Жанр: Документальный
Участники: Ян Стюарт, Сюзан Гринфилд, Стивен Хокинг, Ричард Докинзб Харри Крото
Продолжительность: 5x~00:23:30
Перевод: Одноголосый закадровый, профессиональный
Видеокодек: Xvid
Битрейт видео: ~1650 kbps
Размер кадра: 704x448
Качество видео: TVRip
Аудиокодек: MP3, 2 ch.
Битрейт аудио: 128 kbps
Описание:

Список серий:

01. Стивен Хокинг. Каково происхождение Вселенной? / How Did The Universe Begin?
"Меня всегда интересовало внутреннее устройство различных вещей и принципы, в соответствии с которыми они работают. Я разбирал предметы на части, но собрать их обратно мне не всегда удавалось. Я думаю, так поступают большинство детей. Их интересует как устроены предметы, из чего они сделаны и что заставляет их работать? Я до сих пор этим занимаюсь, но теперь у меня есть некоторые ответы. В этим фильме я бы хотел поделиться с вами сведениями о том, как ученым удалось разгадать величайшую тайну Вселенной - ее происхождение...."
02. Харри Крото. Как возникла жизнь? / How did Life Begin?
Химия - мощное средство описания мира. В этом фильме мы используем язык химии, чтобы помочь найти ответ на вопрос - как возникла жизнь.
03. Ричард Докинз. Почему мы здесь? / Why are we here?
"Человеческая раса - одно из чудес Вселенной. Возможно, мы уникальны. И одно из наших удивительных качеств поражает больше, чем все остальные. Мы постоянно задаемся вопросом "Почему мы здесь? В чем смысл жизни?".
Великие цивилизации культуры прошлого отвечали по-разному, но ни один из ответов не приносил удовлетворения - все они были, скорее, надуманные, чем доказанные. Сможет ли наука дать лучшее объяснение? Я думаю, да. Кто-то назовет меня самонадеянным, но я считаю, что наука в состоянии дать ответ, почему, рассказать о цели существования человечества. И ответ будет захватывающим и оптимистичным....."
04. Сюзан Гринфилд. Почему я это я? / Why am I me?
На земле живут 6 миллиардов человек. И каждый сам по себе уникален: у каждого свои мысли, идеи, память и чувства, принадлежащие только ему одному. Итак, что же происходит у меня в голове в этот самый момент, когда я говорю эти слова? И в вашей голове, пока вы слушаете их? Речь не идет о механизме говорения, слушания и понимания языка, а о субъективном восприятии самого себя каждым из нас.
05. Ян Стюарт. Каким будет конец нашего мира? /How will the World End?
В детстве я увлекался научной фантастикой, любил читать журналы - почти в каждом выпуске тогда был рассказ о каком-нибудь злодее, угрожающем уничтожить наш мир. Представляете, как это, да? Земля превращается в огненный шар, или, там, моря закипают, испаряясь от излучения. Даже такие невероятные сценарии способны вызвать в нас трепет, поскольку мысль о конце нашего мира завораживала всех нас. Всегда. И завораживает до сих пор....

MediaInfo:

Формат : AVI
Формат/Информация : Audio Video Interleave
Размер файла : 301 Мбайт
Продолжительность : 23 м.
Общий поток : 1788 Кбит/сек
Программа кодирования : VirtualDubMod 1.5.10.3 | www.virtualdub-fr.org || (build 2550/release)
Библиотека кодирования : VirtualDubMod build 2550/release
Видео
Идентификатор : 0
Формат : MPEG-4 Visual
Профиль формата : Advanced [email protected]
Параметр BVOP формата : 2
Параметр QPel формата : Нет
Параметр GMC формата : Без точки перехода
Параметр матрицы формата : Default (H.263)
Идентификатор кодека : XVID
Идентификатор кодека/Подсказка : XviD
Продолжительность : 23 м.
Битрейт : 1650 Кбит/сек
Ширина : 704 пикселя
Высота : 448 пикселей
Соотношение сторон : 1,571
Частота кадров : 25,000 кадров/сек
Цветовое пространство : YUV
Субдискретизация насыщенности : 4:2:0
Битовая глубина : 8 бит
Тип развёртки : Прогрессивная
Метод сжатия : С потерями
Бит/(Пиксели*Кадры) : 0.209
Размер потока : 278 Мбайт (92%)
Библиотека кодирования : XviD 1.2.1 (UTC 2008-12-04)
Аудио
Идентификатор : 1
Формат : MPEG Audio
Версия формата : Version 1
Профиль формата : Layer 3
Режим : Joint stereo
Расширение режима : MS Stereo
Идентификатор кодека : 55
Идентификатор кодека/Подсказка : MP3
Продолжительность : 23 м.
Вид битрейта : Постоянный
Битрейт : 128 Кбит/сек
Каналы : 2 канала
Частота : 48,0 КГц
Метод сжатия : С потерями
Размер потока : 21,5 Мбайт (7%)
Выравнивание : Соединение по промежуткам
Продолжительность промежутка : 40 мс. (1,00 видеокадр)
Время предзагрузки промежутка : 504 мс.
Библиотека кодирования : LAME3.99
Настройки программы : -m j -V 4 -q 2 -lowpass 17 -b 128
Общее
Полное имя : D:_NNThe_Big_Question2_Harry_Kroto_How_did_Life_Begin.avi
Формат : AVI
Формат/Информация : Audio Video Interleave
Размер файла : 301 Мбайт
Продолжительность : 23 м.
Общий поток : 1788 Кбит/сек
Программа кодирования : VirtualDubMod 1.5.10.3 | www.virtualdub-fr.org || (build 2550/release)
Библиотека кодирования : VirtualDubMod build 2550/release
Видео
Идентификатор : 0
Формат : MPEG-4 Visual
Профиль формата : Advanced [email protected]
Параметр BVOP формата : 2
Параметр QPel формата : Нет
Параметр GMC формата : Без точки перехода
Параметр матрицы формата : Default (H.263)
Идентификатор кодека : XVID
Идентификатор кодека/Подсказка : XviD
Продолжительность : 23 м.
Битрейт : 1650 Кбит/сек
Ширина : 704 пикселя
Высота : 448 пикселей
Соотношение сторон : 1,571
Частота кадров : 25,000 кадров/сек
Цветовое пространство : YUV
Субдискретизация насыщенности : 4:2:0
Битовая глубина : 8 бит
Тип развёртки : Прогрессивная
Метод сжатия : С потерями
Бит/(Пиксели*Кадры) : 0.209
Размер потока : 278 Мбайт (92%)
Библиотека кодирования : XviD 1.2.1 (UTC 2008-12-04)
Аудио
Идентификатор : 1
Формат : MPEG Audio
Версия формата : Version 1
Профиль формата : Layer 3
Режим : Joint stereo
Расширение режима : MS Stereo
Идентификатор кодека : 55
Идентификатор кодека/Подсказка : MP3
Продолжительность : 23 м.
Вид битрейта : Постоянный
Битрейт : 128 Кбит/сек
Каналы : 2 канала
Частота : 48,0 КГц
Метод сжатия : С потерями
Размер потока : 21,5 Мбайт (7%)
Выравнивание : Соединение по промежуткам
Продолжительность промежутка : 40 мс. (1,00 видеокадр)
Время предзагрузки промежутка : 504 мс.
Библиотека кодирования : LAME3.99
Настройки программы : -m j -V 4 -q 2 -lowpass 17 -b 128
Общее
Полное имя : D:_NNThe_Big_Question3_Richard_Dawkins_Why_are_we_here.avi
Формат : AVI
Формат/Информация : Audio Video Interleave
Размер файла : 305 Мбайт
Продолжительность : 23 м.
Общий поток : 1788 Кбит/сек
Программа кодирования : VirtualDubMod 1.5.10.3 | www.virtualdub-fr.org || (build 2550/release)
Библиотека кодирования : VirtualDubMod build 2550/release
Видео
Идентификатор : 0
Формат : MPEG-4 Visual
Профиль формата : Advanced [email protected]
Параметр BVOP формата : 2
Параметр QPel формата : Нет
Параметр GMC формата : Без точки перехода
Параметр матрицы формата : Default (H.263)
Идентификатор кодека : XVID
Идентификатор кодека/Подсказка : XviD
Продолжительность : 23 м.
Битрейт : 1650 Кбит/сек
Ширина : 704 пикселя
Высота : 448 пикселей
Соотношение сторон : 1,571
Частота кадров : 25,000 кадров/сек
Цветовое пространство : YUV
Субдискретизация насыщенности : 4:2:0
Битовая глубина : 8 бит
Тип развёртки : Прогрессивная
Метод сжатия : С потерями
Бит/(Пиксели*Кадры) : 0.209
Размер потока : 281 Мбайт (92%)
Библиотека кодирования : XviD 1.2.1 (UTC 2008-12-04)
Аудио
Идентификатор : 1
Формат : MPEG Audio
Версия формата : Version 1
Профиль формата : Layer 3
Режим : Joint stereo
Расширение режима : MS Stereo
Идентификатор кодека : 55
Идентификатор кодека/Подсказка : MP3
Продолжительность : 23 м.
Вид битрейта : Постоянный
Битрейт : 128 Кбит/сек
Каналы : 2 канала
Частота : 48,0 КГц
Метод сжатия : С потерями
Размер потока : 21,8 Мбайт (7%)
Выравнивание : Соединение по промежуткам
Продолжительность промежутка : 40 мс. (1,00 видеокадр)
Время предзагрузки промежутка : 504 мс.
Библиотека кодирования : LAME3.99
Настройки программы : -m j -V 4 -q 2 -lowpass 17 -b 128
Общее
Полное имя : D:_NNThe_Big_Question4_Susan_Greenfield_Why_am_I_me.avi
Формат : AVI
Формат/Информация : Audio Video Interleave
Размер файла : 300 Мбайт
Продолжительность : 23 м.
Общий поток : 1788 Кбит/сек
Программа кодирования : VirtualDubMod 1.5.10.3 | www.virtualdub-fr.org || (build 2550/release)
Библиотека кодирования : VirtualDubMod build 2550/release
Видео
Идентификатор : 0
Формат : MPEG-4 Visual
Профиль формата : Advanced [email protected]
Параметр BVOP формата : 2
Параметр QPel формата : Нет
Параметр GMC формата : Без точки перехода
Параметр матрицы формата : Default (H.263)
Идентификатор кодека : XVID
Идентификатор кодека/Подсказка : XviD
Продолжительность : 23 м.
Битрейт : 1650 Кбит/сек
Ширина : 704 пикселя
Высота : 448 пикселей
Соотношение сторон : 1,571
Частота кадров : 25,000 кадров/сек
Цветовое пространство : YUV
Субдискретизация насыщенности : 4:2:0
Битовая глубина : 8 бит
Тип развёртки : Прогрессивная
Метод сжатия : С потерями
Бит/(Пиксели*Кадры) : 0.209
Размер потока : 276 Мбайт (92%)
Библиотека кодирования : XviD 1.2.1 (UTC 2008-12-04)
Аудио
Идентификатор : 1
Формат : MPEG Audio
Версия формата : Version 1
Профиль формата : Layer 3
Режим : Joint stereo
Расширение режима : MS Stereo
Идентификатор кодека : 55
Идентификатор кодека/Подсказка : MP3
Продолжительность : 23 м.
Вид битрейта : Постоянный
Битрейт : 128 Кбит/сек
Каналы : 2 канала
Частота : 48,0 КГц
Метод сжатия : С потерями
Размер потока : 21,5 Мбайт (7%)
Выравнивание : Соединение по промежуткам
Продолжительность промежутка : 40 мс. (1,00 видеокадр)
Время предзагрузки промежутка : 504 мс.
Библиотека кодирования : LAME3.99
Настройки программы : -m j -V 4 -q 2 -lowpass 17 -b 128
Общее
Полное имя : D:_NNThe_Big_Question5_Ian_Stewart_How_will_the_World_End.avi
Формат : AVI
Формат/Информация : Audio Video Interleave
Размер файла : 300 Мбайт
Продолжительность : 23 м.
Общий поток : 1788 Кбит/сек
Программа кодирования : VirtualDubMod 1.5.10.3 | www.virtualdub-fr.org || (build 2550/release)
Библиотека кодирования : VirtualDubMod build 2550/release
Видео
Идентификатор : 0
Формат : MPEG-4 Visual
Профиль формата : Advanced [email protected]
Параметр BVOP формата : 2
Параметр QPel формата : Нет
Параметр GMC формата : Без точки перехода
Параметр матрицы формата : Default (H.263)
Идентификатор кодека : XVID
Идентификатор кодека/Подсказка : XviD
Продолжительность : 23 м.
Битрейт : 1650 Кбит/сек
Ширина : 704 пикселя
Высота : 448 пикселей
Соотношение сторон : 1,571
Частота кадров : 25,000 кадров/сек
Цветовое пространство : YUV
Субдискретизация насыщенности : 4:2:0
Битовая глубина : 8 бит
Тип развёртки : Прогрессивная
Метод сжатия : С потерями
Бит/(Пиксели*Кадры) : 0.209
Размер потока : 277 Мбайт (92%)
Библиотека кодирования : XviD 1.2.1 (UTC 2008-12-04)
Аудио
Идентификатор : 1
Формат : MPEG Audio
Версия формата : Version 1
Профиль формата : Layer 3
Режим : Joint stereo
Расширение режима : MS Stereo
Идентификатор кодека : 55
Идентификатор кодека/Подсказка : MP3
Продолжительность : 23 м.
Вид битрейта : Постоянный
Битрейт : 128 Кбит/сек
Каналы : 2 канала
Частота : 48,0 КГц
Метод сжатия : С потерями
Размер потока : 21,5 Мбайт (7%)
Выравнивание : Соединение по промежуткам
Продолжительность промежутка : 40 мс. (1,00 видеокадр)
Время предзагрузки промежутка : 504 мс.
Библиотека кодирования : LAME3.99
Настройки программы : -m j -V 4 -q 2 -lowpass 17 -b 128
[url=/forum/viewtopic.php?t=377300]Сложный вопрос. Каково происхождение вселенной? / Discovery Science. How Did The Universe Begin? (2004) SATRip[/url]
Скриншоты:
         
         
Время раздачи: 24/7 ( до первых скачавших, перебои со связью бывают,зависит от провайдера)
Other forum [Profile] [PM]
Display posts from previous:    
Reply to topic

The time now is: Today 11:21

All times are GMT + 3 Hours



You cannot post new topics in this forum
You cannot reply to topics in this forum
You cannot edit your posts in this forum
You cannot delete your posts in this forum
You cannot vote in polls in this forum
You cannot attach files in this forum
You cannot download files in this forum