Today is a free download without charge Download

Город наизнанку: Город в пустыне: Дубай / Strip The City: Desert City: Dubai (2013) WEB-Rip

Reply to topic
 
Author
Message

UndegraundMen ®

Longevity: 7 years 7 months

Posts: 25145

Торрент-статистика

Post 04-Mar-2013 06:16

[Quote]

Город наизнанку: Город в пустыне: Дубай / Strip The City: Desert City: Dubai (2013) WEB-Rip- Русское название: Город наизнанку: Город в пустыне: Дубай
Оригинальное название: Strip The City: Desert City: Dubai
Режиссер / Телекомпания: Discovery Channel
Год выпуска: 2013
Жанр: Документальный
Описание:
40 лет назад на этом месте была пустыня. Сегодня это самый быстро растущий на планете мегаполис в пустыне. Строительство такого города, в одном из самых жарких мест на планете, кажется невозможным. Что же придумали инженеры? Чтобы это поменять мы вывернем город на изнанку, обнажим его скрытые внутренние ресурсы и расскажем о искусных технологиях, которые позволили инженерам построить эту Жемчужину пустыни.
Продолжительность: 00:43:27
Перевод: Одноголосый закадровый, профессиональный
Видеокодек: H.264
Битрейт видео: ~1568 Кбит/сек
Размер кадра: 848x480
Качество видео: WEB-Rip
Аудиокодек: MP3, 2ch.
Битрейт аудио: 320 Кбит/сек
Скриншоты:
       

MediaInfo

Общее
Полное имя : H:ДОКУМЕНТАЛКИГород наизнанку Город в пустыне Дубай.avi
Формат : AVI
Формат/Информация : Audio Video Interleave
Размер файла : 591 Мбайт
Продолжительность : 43 м.
Режим общего битрейта : Переменный
Общий поток : 1900 Кбит/сек
Программа кодирования : Lavf51.12.1
Видео
Идентификатор : 0
Формат : AVC
Формат/Информация : Advanced Video Codec
Профиль формата : [url=mailto:[email protected]][email protected][/url]
Параметр CABAC формата : Нет
Параметр ReFrames формата : 1 кадр
Параметр GOP формата : M=1, N=12
Идентификатор кодека : H264
Продолжительность : 43 м.
Вид битрейта : Переменный
Битрейт : 1568 Кбит/сек
Максимальный битрейт : 2250 Кбит/сек
Ширина : 848 пикселей
Высота : 480 пикселей
Соотношение сторон : 16:9
Частота кадров : 25,000 кадров/сек
Частота кадров в оригинале : 24,000 кадра/сек
Цветовое пространство : YUV
Субдискретизация насыщенности : 4:2:0
Битовая глубина : 8 бит
Тип развёртки : Прогрессивная
Бит/(Пиксели*Кадры) : 0.154
Размер потока : 487 Мбайт (83%)
Аудио
Идентификатор : 1
Формат : MPEG Audio
Версия формата : Version 1
Профиль формата : Layer 3
Режим : Joint stereo
Расширение режима : MS Stereo
Идентификатор кодека : 55
Идентификатор кодека/Подсказка : MP3
Продолжительность : 43 м.
Вид битрейта : Постоянный
Битрейт : 320 Кбит/сек
Каналы : 2 канала
Частота : 44,1 КГц
Метод сжатия : С потерями
Размер потока : 99,5 Мбайт (17%)
Выравнивание : Соединение по промежуткам
Продолжительность промежутка : 26 мс. (0,65 видеокадр)
Время предзагрузки промежутка : 26 мс.
Библиотека кодирования : LAME3.97
Время раздачи: с 9:00 до 21:00
Other forum [Profile] [PM]
Display posts from previous:    
Reply to topic

The time now is: Today 18:44

All times are GMT + 3 Hours



You cannot post new topics in this forum
You cannot reply to topics in this forum
You cannot edit your posts in this forum
You cannot delete your posts in this forum
You cannot vote in polls in this forum
You cannot attach files in this forum
You cannot download files in this forum