Today is a free download without charge Download

Лозен, воительница апачей / Warrior Women: Lozen Apache Warrior (2003) SATRip

Reply to topic
 
Author
Message

UndegraundMen ®

Longevity: 7 years 7 months

Posts: 25145

Торрент-статистика

Post 04-Mar-2013 06:16

[Quote]

Лозен, воительница апачей / Warrior Women: Lozen Apache Warrior (2003) SATRip-
Русское название: Лозен, воительница апачей
Оригинальное название: Warrior Women: Lozen Apache Warrior
Режиссер / Телекомпания: Discovery Channel
Год выпуска: 2003
Жанр: Документальный, Видовой
Описание:
Лозен (ок. 1840-1890) была сестрой вождя апачей Викторио. Будучи искусным воином и пророком, она являлась щитом для своего народа. В этой передаче идет подробный рассказ о жизни и эпохе женщины-воительницы, говорится о народной мифологии, которая окружает образ Лозен, жрицы-воительницы Апачей.

Участники: Люси Лоулесс, Шенон Диктсон, Харлин Джеронимо, Брюс Клинеколе, др.Джон Смит
Продолжительность: 00:47:07
Перевод: Двуголосый закадровый, профессиональный
Видеокодек: Xvid
Битрейт видео: ~2024 kbps
Размер кадра: 720x480
Качество видео: SATRip
Аудиокодек: MP3
Битрейт аудио: 192 kb/s

MI:

Общее
Полное имя : D:ArchyvFilmsLozen.vogdy.apazey.avi
Формат : AVI
Формат/Информация : Audio Video Interleave
Размер файла : 750 Мбайт
Продолжительность : 47 м.
Общий поток : 2224 Кбит/сек
Программа кодирования : VirtualDubMod 1.5.4.1 (build 2178/release)
Библиотека кодирования : VirtualDubMod build 2178/release
Видео
Идентификатор : 0
Формат : MPEG-4 Visual
Профиль формата : Advanced [email protected]
Параметр BVOP формата : 1
Параметр QPel формата : Нет
Параметр GMC формата : Без точки перехода
Параметр матрицы формата : Выборочная
Идентификатор кодека : XVID
Идентификатор кодека/Подсказка : XviD
Продолжительность : 47 м.
Битрейт : 2025 Кбит/сек
Ширина : 720 пикселей
Высота : 480 пикселей
Соотношение сторон : 3:2
Частота кадров : 25,000 кадров/сек
Стандарт вещания : NTSC
Цветовое пространство : YUV
Субдискретизация насыщенности : 4:2:0
Битовая глубина : 8 бит
Тип развёртки : Прогрессивная
Метод сжатия : С потерями
Бит/(Пиксели*Кадры) : 0.234
Размер потока : 682 Мбайт (91%)
Библиотека кодирования : XviD 1.2.1 (UTC 2008-12-04)
Аудио
Идентификатор : 1
Формат : MPEG Audio
Версия формата : Version 1
Профиль формата : Layer 3
Режим : Joint stereo
Расширение режима : MS Stereo
Идентификатор кодека : 55
Идентификатор кодека/Подсказка : MP3
Продолжительность : 47 м.
Вид битрейта : Постоянный
Битрейт : 192 Кбит/сек
Каналы : 2 канала
Частота : 48,0 КГц
Метод сжатия : С потерями
Размер потока : 64,7 Мбайт (9%)
Выравнивание : Соединение по промежуткам
Продолжительность промежутка : 80 мс. (2,00 видеокадра)
Время предзагрузки промежутка : 504 мс.
Библиотека кодирования : LAME
Скриншоты:          
Время раздачи: с 6:00 до 22:00 (GMT +2)
Other forum [Profile] [PM]
Display posts from previous:    
Reply to topic

The time now is: Today 09:20

All times are GMT + 3 Hours



You cannot post new topics in this forum
You cannot reply to topics in this forum
You cannot edit your posts in this forum
You cannot delete your posts in this forum
You cannot vote in polls in this forum
You cannot attach files in this forum
You cannot download files in this forum