Today is a free download without charge Download

Город наизнанку: Город и землетрясение Сан-Франциско / Strip The City: City and earthquake of San Francisco (2013) WEB-Rip

Reply to topic
 
Author
Message

UndegraundMen ®

Longevity: 7 years 7 months

Posts: 25145

Торрент-статистика

Post 04-Mar-2013 06:16

[Quote]

Город наизнанку: Город и землетрясение Сан-Франциско / Strip The City: City and earthquake of San Francisco (2013) WEB-Rip- Русское название: Город наизнанку: Город и землетрясение Сан-Франциско
Оригинальное название: Strip The City: City and earthquake of San Francisco
Режиссер / Телекомпания: Discovery Channel
Год выпуска: 2013
Жанр: Документальный
Описание:
Сан-Франциско постоянно подвергается разрушающему воздействию земли. Каждый день этот город выдерживает более 20 небольших землетрясений. Жители города уже привыкли принимать землетрясение как должное, но они знают что приближается сильное. Кажется невозможным построить город около разлома земной коры. Но как же существует Сан-Франциско? Чтобы это понять, мы вывернем этот город наизнанку. Обнажим его скрытые земные ресурсы и расскажем о искусных технологиях, которые позволили инженерам построить город на грани.
Продолжительность: 00:43:35
Перевод: Одноголосый закадровый, профессиональный
Видеокодек: H.264
Битрейт видео: ~1569 Кбит/сек
Размер кадра: 856x480
Качество видео: WEB-Rip
Аудиокодек: MP3, 2 канала
Битрейт аудио: 320 Кбит/сек
Город наизнанку на NNM-CLUB
Скриншоты:
       
       

MediaInfo

Общее
Полное имя : H:ДОКУМЕНТАЛКИГород наизнанку Город и землетрясение Сан-Франциско.avi
Формат : AVI
Формат/Информация : Audio Video Interleave
Размер файла : 593 Мбайт
Продолжительность : 43 м.
Режим общего битрейта : Переменный
Общий поток : 1902 Кбит/сек
Программа кодирования : Lavf51.12.1
Видео
Идентификатор : 0
Формат : AVC
Формат/Информация : Advanced Video Codec
Профиль формата : [url=mailto:[email protected]][email protected][/url]
Параметр CABAC формата : Нет
Параметр ReFrames формата : 1 кадр
Параметр GOP формата : M=1, N=12
Идентификатор кодека : H264
Продолжительность : 43 м.
Вид битрейта : Переменный
Битрейт : 1569 Кбит/сек
Максимальный битрейт : 2250 Кбит/сек
Ширина : 856 пикселей
Высота : 480 пикселей
Соотношение сторон : 16:9
Частота кадров : 25,000 кадров/сек
Частота кадров в оригинале : 24,000 кадра/сек
Цветовое пространство : YUV
Субдискретизация насыщенности : 4:2:0
Битовая глубина : 8 бит
Тип развёртки : Прогрессивная
Бит/(Пиксели*Кадры) : 0.153
Размер потока : 489 Мбайт (83%)
Аудио
Идентификатор : 1
Формат : MPEG Audio
Версия формата : Version 1
Профиль формата : Layer 3
Режим : Joint stereo
Расширение режима : MS Stereo
Идентификатор кодека : 55
Идентификатор кодека/Подсказка : MP3
Продолжительность : 43 м.
Вид битрейта : Постоянный
Битрейт : 320 Кбит/сек
Каналы : 2 канала
Частота : 44,1 КГц
Метод сжатия : С потерями
Размер потока : 99,8 Мбайт (17%)
Выравнивание : Соединение по промежуткам
Продолжительность промежутка : 26 мс. (0,65 видеокадр)
Время предзагрузки промежутка : 26 мс.
Библиотека кодирования : LAME3.97
Время раздачи: с 9:00 до 21:00
Other forum [Profile] [PM]
Similar theme
Forum Topic Author Torrent Replies Last Post
./templates/default/images/folder_dl.gif Приключения и квесты Small Town Terrors 3 Galdors Bluff Sammleredition / Террор в городке 3 Блеф Галдора Коллекционное издание [P] [RUS] (2015) Omen
2 | 0

0 | 2153

24

2015-06-13 15:00
Omen Latest
Display posts from previous:    
Reply to topic

The time now is: Today 13:47

All times are GMT + 3 Hours



You cannot post new topics in this forum
You cannot reply to topics in this forum
You cannot edit your posts in this forum
You cannot delete your posts in this forum
You cannot vote in polls in this forum
You cannot attach files in this forum
You cannot download files in this forum