Today is a free download without charge Download

Discovery: Кладоискатели Америки (5 серий из 10)/ Discovery: American Digger (2012) WEB-Rip [обновляемая]

Reply to topic
 
Author
Message

UndegraundMen ®

Longevity: 7 years 7 months

Posts: 25145

Торрент-статистика

Post 04-Mar-2013 06:16

[Quote]

Discovery: Кладоискатели Америки (5 серий из 10)/ Discovery: American Digger (2012) WEB-Rip [обновляемая]- Русское название: Discovery: Кладоискатели Америки
Оригинальное название: Discovery: American Digger
Режиссер / Телекомпания: Discovery Channel
Год выпуска: 2012
Жанр: Документальный
Описание:
Рик Сэйвидж и его команда ездят по Америке, раскапывая реликвии в садах обычных американцев в надежде разбогатеть. Рик должен убедить хозяев разрешить вести раскопки на их территории с использованием новейших металлоискателей и тяжелого землеройного оборудования.
Продолжительность: 5 х ~ 00:20:25
Перевод: Одноголосый закадровый, профессиональный
Видеокодек: Xvid
Битрейт видео: ~ 933 - 1200 Кбит/сек
Размер кадра: 640x480
Качество видео: WEB-Rip
Аудиокодек: MP3, 2ch.
Битрейт аудио: 320 Кбит/сек

Внимание! Раздача ведётся путём добавления новых серий. Описание процедуры обновления торрента

Внимание! Раздача ведётся путём добавления новых серий; при каждом добавлении создётся новый торрент. Чтобы начать докачку новой серии, пользователям необходимо сделать следующее:
(1) остановить скачивание,
(2) удалить старый торрент у себя из клиента (старые серии удалять не надо),
(3) скачать новый торрент и запустить его у себя в клиенте вместо старого, при этом указать клиенту путь в старую папку куда и должно происходить скачивание новых серий.
Ваш клиент при этом должен произвести хеширование (проверку) старой папки (если не производит сам - помогите ему сделать это), и будет докачивать только те серии которых у вас ещё нет. Старые серии при этом не удаляются, а продолжают раздаваться!
Eсли вы уже удалили старые серии, то предотвратить повторную закачку старых серий можно, отжав галочку в соответсвующих местах при запуске нового торрента. По возможности, желательно не удалять старые серии как можно дольше, чтобы релизёр не только продолжал раздавать старые серии, но и смог сконцентрироваться на новых.
Скриншоты:
       
       

MediaInfo

Общее
Полное имя : H:ДОКУМЕНТАЛКИКладоискатели АмерикиКладоискатели Америки 2 серия.avi
Формат : AVI
Формат/Информация : Audio Video Interleave
Размер файла : 225 Мбайт
Продолжительность : 20 м.
Общий поток : 1533 Кбит/сек
Программа кодирования : Lavf51.12.1
Видео
Идентификатор : 0
Формат : xvid
Идентификатор кодека : xvid
Продолжительность : 20 м.
Битрейт : 1201 Кбит/сек
Ширина : 640 пикселей
Высота : 480 пикселей
Соотношение сторон : 4:3
Частота кадров : 25,000 кадров/сек
Бит/(Пиксели*Кадры) : 0.156
Размер потока : 176 Мбайт (78%)
Аудио
Идентификатор : 1
Формат : MPEG Audio
Версия формата : Version 1
Профиль формата : Layer 3
Режим : Joint stereo
Расширение режима : MS Stereo
Идентификатор кодека : 55
Идентификатор кодека/Подсказка : MP3
Продолжительность : 20 м.
Вид битрейта : Постоянный
Битрейт : 320 Кбит/сек
Каналы : 2 канала
Частота : 44,1 КГц
Метод сжатия : С потерями
Размер потока : 46,9 Мбайт (21%)
Выравнивание : Соединение по промежуткам
Продолжительность промежутка : 26 мс. (0,65 видеокадр)
Время предзагрузки промежутка : 26 мс.
Библиотека кодирования : LAME3.97
Общее
Полное имя : H:ДОКУМЕНТАЛКИКладоискатели АмерикиКладоискатели Америки 3 серия.avi
Формат : AVI
Формат/Информация : Audio Video Interleave
Размер файла : 221 Мбайт
Продолжительность : 20 м.
Общий поток : 1534 Кбит/сек
Программа кодирования : Lavf51.12.1
Видео
Идентификатор : 0
Формат : xvid
Идентификатор кодека : xvid
Продолжительность : 20 м.
Битрейт : 1201 Кбит/сек
Ширина : 640 пикселей
Высота : 480 пикселей
Соотношение сторон : 4:3
Частота кадров : 25,000 кадров/сек
Бит/(Пиксели*Кадры) : 0.156
Размер потока : 173 Мбайт (78%)
Аудио
Идентификатор : 1
Формат : MPEG Audio
Версия формата : Version 1
Профиль формата : Layer 3
Режим : Joint stereo
Расширение режима : MS Stereo
Идентификатор кодека : 55
Идентификатор кодека/Подсказка : MP3
Продолжительность : 20 м.
Вид битрейта : Постоянный
Битрейт : 320 Кбит/сек
Каналы : 2 канала
Частота : 44,1 КГц
Метод сжатия : С потерями
Размер потока : 46,1 Мбайт (21%)
Выравнивание : Соединение по промежуткам
Продолжительность промежутка : 26 мс. (0,65 видеокадр)
Время предзагрузки промежутка : 26 мс.
Библиотека кодирования : LAME3.97
Общее
Полное имя : H:ДОКУМЕНТАЛКИКладоискатели АмерикиКладоискатели Америки 5 серия.avi
Формат : AVI
Формат/Информация : Audio Video Interleave
Размер файла : 221 Мбайт
Продолжительность : 20 м.
Общий поток : 1532 Кбит/сек
Программа кодирования : Lavf51.12.1
Видео
Идентификатор : 0
Формат : xvid
Идентификатор кодека : xvid
Продолжительность : 20 м.
Битрейт : 1199 Кбит/сек
Ширина : 640 пикселей
Высота : 480 пикселей
Соотношение сторон : 4:3
Частота кадров : 25,000 кадров/сек
Бит/(Пиксели*Кадры) : 0.156
Размер потока : 173 Мбайт (78%)
Аудио
Идентификатор : 1
Формат : MPEG Audio
Версия формата : Version 1
Профиль формата : Layer 3
Режим : Joint stereo
Расширение режима : MS Stereo
Идентификатор кодека : 55
Идентификатор кодека/Подсказка : MP3
Продолжительность : 20 м.
Вид битрейта : Постоянный
Битрейт : 320 Кбит/сек
Каналы : 2 канала
Частота : 44,1 КГц
Метод сжатия : С потерями
Размер потока : 46,1 Мбайт (21%)
Выравнивание : Соединение по промежуткам
Продолжительность промежутка : 26 мс. (0,65 видеокадр)
Время предзагрузки промежутка : 26 мс.
Библиотека кодирования : LAME3.97
Общее
Полное имя : H:ДОКУМЕНТАЛКИКладоискатели АмерикиКладоискатели Америки 4 серия.avi
Формат : AVI
Формат/Информация : Audio Video Interleave
Размер файла : 174 Мбайт
Продолжительность : 20 м.
Общий поток : 1167 Кбит/сек
Программа кодирования : Lavf51.12.1
Видео
Идентификатор : 0
Формат : xvid
Идентификатор кодека : xvid
Продолжительность : 20 м.
Битрейт : 933 Кбит/сек
Ширина : 640 пикселей
Высота : 480 пикселей
Соотношение сторон : 4:3
Частота кадров : 25,000 кадров/сек
Бит/(Пиксели*Кадры) : 0.121
Размер потока : 139 Мбайт (80%)
Аудио
Идентификатор : 1
Формат : MPEG Audio
Версия формата : Version 1
Профиль формата : Layer 3
Режим : Joint stereo
Расширение режима : MS Stereo
Идентификатор кодека : 55
Идентификатор кодека/Подсказка : MP3
Продолжительность : 14 м.
Вид битрейта : Постоянный
Битрейт : 320 Кбит/сек
Каналы : 2 канала
Частота : 44,1 КГц
Метод сжатия : С потерями
Размер потока : 33,5 Мбайт (19%)
Выравнивание : Соединение по промежуткам
Продолжительность промежутка : 37 мс. (0,93 видеокадр)
Время предзагрузки промежутка : 26 мс.
Библиотека кодирования : LAME3.97
Общее
Полное имя : H:ДОКУМЕНТАЛКИКладоискатели АмерикиКладоискатели Америки 1 серия.avi
Формат : AVI
Формат/Информация : Audio Video Interleave
Размер файла : 222 Мбайт
Продолжительность : 20 м.
Общий поток : 1533 Кбит/сек
Программа кодирования : Lavf51.12.1
Видео
Идентификатор : 0
Формат : xvid
Идентификатор кодека : xvid
Продолжительность : 20 м.
Битрейт : 1200 Кбит/сек
Ширина : 640 пикселей
Высота : 480 пикселей
Соотношение сторон : 4:3
Частота кадров : 25,000 кадров/сек
Бит/(Пиксели*Кадры) : 0.156
Размер потока : 174 Мбайт (78%)
Аудио
Идентификатор : 1
Формат : MPEG Audio
Версия формата : Version 1
Профиль формата : Layer 3
Режим : Joint stereo
Расширение режима : MS Stereo
Идентификатор кодека : 55
Идентификатор кодека/Подсказка : MP3
Продолжительность : 20 м.
Вид битрейта : Постоянный
Битрейт : 320 Кбит/сек
Каналы : 2 канала
Частота : 44,1 КГц
Метод сжатия : С потерями
Размер потока : 46,3 Мбайт (21%)
Выравнивание : Соединение по промежуткам
Продолжительность промежутка : 26 мс. (0,65 видеокадр)
Время предзагрузки промежутка : 26 мс.
Библиотека кодирования : LAME3.97
Время раздачи: с 9:00 до 21:00
Other forum [Profile] [PM]
Display posts from previous:    
Reply to topic

The time now is: Today 09:57

All times are GMT + 3 Hours



You cannot post new topics in this forum
You cannot reply to topics in this forum
You cannot edit your posts in this forum
You cannot delete your posts in this forum
You cannot vote in polls in this forum
You cannot attach files in this forum
You cannot download files in this forum