Today is a free download without charge Download

Discovery: Саперы кровавой дороги (3 серия из 3)/ Discovery: Sappers of the bloody road (2013) WEB-Rip

Reply to topic
 
Author
Message

UndegraundMen ®

Longevity: 7 years 7 months

Posts: 25145

Торрент-статистика

Post 04-Mar-2013 06:16

[Quote]

Discovery: Саперы кровавой дороги (3 серия из 3)/ Discovery: Sappers of the bloody road (2013) WEB-Rip- Русское название: Discovery: Саперы кровавой дороги
Оригинальное название: Discovery: Sappers of the bloody road
Режиссер / Телекомпания: Discovery Channel
Год выпуска: 2013
Жанр: Документальный
Описание:
Во время войны в Афганистане сложилась опасная обстановка. Большая часть дорог была заминирована, и представляла серьёзную угрозу армии США. В передаче Саперы кровавой дороги рассказывается про специальное подразделение состоящие из двух взводов, которое действует на линии фронта в Афганистане. С помощью невероятной техники и машин, они разминируют самые опасные и смертоносные дороги в мире. Рискуя жизнью, эти парни действуют под выстрелами талибов, чтобы проложить путь для других подразделений. Они знают, что не имеют права на ошибку, потому что ее ценой станет чья-то жизнь.
Возрастные ограничения: 16+
Саперы кровавой дороги 1 и 2 серия
Продолжительность: 00:43:56
Перевод: Одноголосый закадровый, профессиональный
Видеокодек: H.264
Битрейт видео: ~1670 Кбит/сек
Размер кадра: 716x428
Качество видео: WEB-DLRip
Аудиокодек: MP3, 2 канала
Битрейт аудио: 128 Кбит/сек
Скриншоты:
       

MediaInfo

Общее
Полное имя : H:ДОКУМЕНТАЛКИсапёры кровавой дороги 3 серия.avi
Формат : AVI
Формат/Информация : Audio Video Interleave
Размер файла : 569 Мбайт
Продолжительность : 43 м.
Режим общего битрейта : Переменный
Общий поток : 1810 Кбит/сек
Программа кодирования : Lavf51.12.1
Видео
Идентификатор : 0
Формат : AVC
Формат/Информация : Advanced Video Codec
Профиль формата : [url=mailto:[email protected]][email protected][/url]
Параметр CABAC формата : Нет
Параметр ReFrames формата : 1 кадр
Параметр GOP формата : M=1, N=12
Идентификатор кодека : H264
Продолжительность : 43 м.
Вид битрейта : Переменный
Битрейт : 1670 Кбит/сек
Максимальный битрейт : 2400 Кбит/сек
Ширина : 716 пикселей
Высота : 428 пикселей
Соотношение сторон : 1,673
Частота кадров : 25,000 кадров/сек
Частота кадров в оригинале : 24,000 кадра/сек
Цветовое пространство : YUV
Субдискретизация насыщенности : 4:2:0
Битовая глубина : 8 бит
Тип развёртки : Прогрессивная
Бит/(Пиксели*Кадры) : 0.218
Размер потока : 525 Мбайт (92%)
Аудио
Идентификатор : 1
Формат : MPEG Audio
Версия формата : Version 1
Профиль формата : Layer 3
Режим : Joint stereo
Расширение режима : MS Stereo
Идентификатор кодека : 55
Идентификатор кодека/Подсказка : MP3
Продолжительность : 43 м.
Вид битрейта : Постоянный
Битрейт : 128 Кбит/сек
Каналы : 2 канала
Частота : 44,1 КГц
Метод сжатия : С потерями
Размер потока : 40,2 Мбайт (7%)
Выравнивание : Соединение по промежуткам
Продолжительность промежутка : 26 мс. (0,65 видеокадр)
Время предзагрузки промежутка : 26 мс.
Библиотека кодирования : LAME3.97
Время раздачи: с 9:00 до 21:00
Other forum [Profile] [PM]
Display posts from previous:    
Reply to topic

The time now is: Today 15:29

All times are GMT + 3 Hours



You cannot post new topics in this forum
You cannot reply to topics in this forum
You cannot edit your posts in this forum
You cannot delete your posts in this forum
You cannot vote in polls in this forum
You cannot attach files in this forum
You cannot download files in this forum