Today is a free download without charge Download

Discovery: Золотая Лихорадка. Аляска. / Gold Rush. Alaska. (2012) WEB-Rip [Сезон 3: эпизод 7]

Reply to topic
 
Author
Message

UndegraundMen ®

Longevity: 7 years 7 months

Posts: 25145

Торрент-статистика

Post 04-Mar-2013 06:16

[Quote]

Discovery: Золотая Лихорадка. Аляска. / Gold Rush. Alaska. (2012) WEB-Rip [Сезон 3: эпизод 7]- Русское название: Discovery: Золотая Лихорадка. Аляска.
Оригинальное название: Gold Rush. Alaska.
Режиссер / Телекомпания: Discovery Channel
Год выпуска: 2012
Жанр: Документальный
Описание:
Всего героев передачи шестеро. Все они отважные искатели приключений, привыкшие к трудностям и жаждущие испытать свои возможности в таком экстремальном деле, как поиски золота в одном из самых суровых мест нашей планеты - Аляске.
В 7 серии Золотой лихорадки.
Тодд и его команда наконец тестируют Turbo Trommel, Дейв требует от команды удвоить работу, а Паркер привозит динамит, чтобы взорвать валун.
Продолжительность: 00:54:06
Перевод: Одноголосый закадровый, профессиональный
Видеокодек: Xvid
Битрейт видео: ~1701 Кбит/сек
Размер кадра: 640x480
Качество видео: WEB-Rip
Аудиокодек: MP3, 2 канала
Битрейт аудио: 256 Кбит/сек
Золотая Лихорадка на NNM-CLUB
Скриншоты:
       

MediaInfo

Общее
Полное имя : H:ДОКУМЕНТАЛКИЗолотая Лихорадка. Аляска. 3 сезон 7 серия.avi
Формат : AVI
Формат/Информация : Audio Video Interleave
Размер файла : 762 Мбайт
Продолжительность : 54 м.
Общий поток : 1969 Кбит/сек
Программа кодирования : Lavf51.12.1
Видео
Идентификатор : 0
Формат : xvid
Идентификатор кодека : xvid
Продолжительность : 54 м.
Битрейт : 1701 Кбит/сек
Ширина : 640 пикселей
Высота : 480 пикселей
Соотношение сторон : 4:3
Частота кадров : 25,000 кадров/сек
Бит/(Пиксели*Кадры) : 0.221
Размер потока : 658 Мбайт (86%)
Аудио
Идентификатор : 1
Формат : MPEG Audio
Версия формата : Version 1
Профиль формата : Layer 3
Режим : Joint stereo
Идентификатор кодека : 55
Идентификатор кодека/Подсказка : MP3
Продолжительность : 54 м.
Вид битрейта : Постоянный
Битрейт : 256 Кбит/сек
Каналы : 2 канала
Частота : 44,1 КГц
Метод сжатия : С потерями
Размер потока : 99,1 Мбайт (13%)
Выравнивание : Соединение по промежуткам
Продолжительность промежутка : 26 мс. (0,65 видеокадр)
Время предзагрузки промежутка : 26 мс.
Время раздачи: с 9:00 до 21:00
Other forum [Profile] [PM]
Display posts from previous:    
Reply to topic

The time now is: Today 09:05

All times are GMT + 3 Hours



You cannot post new topics in this forum
You cannot reply to topics in this forum
You cannot edit your posts in this forum
You cannot delete your posts in this forum
You cannot vote in polls in this forum
You cannot attach files in this forum
You cannot download files in this forum