Today is a free download without charge Download

Discovery: Золотая Лихорадка. Берингово море (3 сезон: 2 серии из ?)/ Bering Sea Gold (2013) WEB-Rip [H.264][обновляемая]

Reply to topic
 
Author
Message

UndegraundMen ®

Longevity: 7 years 7 months

Posts: 25145

Торрент-статистика

Post 04-Mar-2013 06:16

[Quote]

Discovery: Золотая Лихорадка. Берингово море (3 сезон: 2 серии из ?)/ Bering Sea Gold (2013) WEB-Rip [обновляемая] - Русское название: Discovery: Золотая Лихорадка. Берингово море
Оригинальное название: Bering Sea Gold
Режиссер / Телекомпания: Discovery Channel
Год выпуска: 2013
Жанр: Документальный
Описание:
На Аляску опять пришло лето. Старатели вновь отправляются на берега Берингова моря. В 3 сезоне Золотой лихорадки: Берингово море Discovery channel вновь наблюдает за добычей золота.
Продолжительность: 2 х ~ 00:44:04
Перевод: Одноголосый закадровый, профессиональный
Видеокодек: H.264
Битрейт видео: ~1568 Кбит/сек
Размер кадра: 856x480; 640x480
Качество видео: WEB-Rip
Аудиокодек: MP3, 2ch.
Битрейт аудио: 320 Кбит/сек
Золотая Лихорадка. Берингово море
Скриншоты:
       
       

Внимание! Раздача ведётся путём добавления новых серий. Описание процедуры обновления торрента

Внимание! Раздача ведётся путём добавления новых серий; при каждом добавлении создётся новый торрент. Чтобы начать докачку новой серии, пользователям необходимо сделать следующее:
(1) остановить скачивание,
(2) удалить старый торрент у себя из клиента (старые серии удалять не надо),
(3) скачать новый торрент и запустить его у себя в клиенте вместо старого, при этом указать клиенту путь в старую папку куда и должно происходить скачивание новых серий.
Ваш клиент при этом должен произвести хеширование (проверку) старой папки (если не производит сам - помогите ему сделать это), и будет докачивать только те серии которых у вас ещё нет. Старые серии при этом не удаляются, а продолжают раздаваться!
Eсли вы уже удалили старые серии, то предотвратить повторную закачку старых серий можно, отжав галочку в соответсвующих местах при запуске нового торрента. По возможности, желательно не удалять старые серии как можно дольше, чтобы релизёр не только продолжал раздавать старые серии, но и смог сконцентрироваться на новых.

MediaInfo

Общее
Полное имя : H:ДОКУМЕНТАЛКИберингово море 3 сезонберингово море 3 сезон 1 серия.avi
Формат : AVI
Формат/Информация : Audio Video Interleave
Размер файла : 599 Мбайт
Продолжительность : 44 м.
Режим общего битрейта : Переменный
Общий поток : 1901 Кбит/сек
Программа кодирования : Lavf51.12.1
Видео
Идентификатор : 0
Формат : AVC
Формат/Информация : Advanced Video Codec
Профиль формата : [url=mailto:[email protected]][email protected][/url]
Параметр CABAC формата : Нет
Параметр ReFrames формата : 1 кадр
Параметр GOP формата : M=1, N=12
Идентификатор кодека : H264
Продолжительность : 44 м.
Вид битрейта : Переменный
Битрейт : 1568 Кбит/сек
Максимальный битрейт : 2250 Кбит/сек
Ширина : 856 пикселей
Высота : 480 пикселей
Соотношение сторон : 16:9
Частота кадров : 25,000 кадров/сек
Частота кадров в оригинале : 24,000 кадра/сек
Цветовое пространство : YUV
Субдискретизация насыщенности : 4:2:0
Битовая глубина : 8 бит
Тип развёртки : Прогрессивная
Бит/(Пиксели*Кадры) : 0.153
Размер потока : 494 Мбайт (83%)
Аудио
Идентификатор : 1
Формат : MPEG Audio
Версия формата : Version 1
Профиль формата : Layer 3
Режим : Joint stereo
Расширение режима : MS Stereo
Идентификатор кодека : 55
Идентификатор кодека/Подсказка : MP3
Продолжительность : 44 м.
Вид битрейта : Постоянный
Битрейт : 320 Кбит/сек
Каналы : 2 канала
Частота : 44,1 КГц
Метод сжатия : С потерями
Размер потока : 101 Мбайт (17%)
Выравнивание : Соединение по промежуткам
Продолжительность промежутка : 26 мс. (0,65 видеокадр)
Время предзагрузки промежутка : 26 мс.
Библиотека кодирования : LAME3.97
Общее
Полное имя : H:ДОКУМЕНТАЛКИберингово море 3 сезонберингово море 3 сезон 2 серия.avi
Формат : AVI
Формат/Информация : Audio Video Interleave
Размер файла : 583 Мбайт
Продолжительность : 42 м.
Режим общего битрейта : Переменный
Общий поток : 1901 Кбит/сек
Программа кодирования : Lavf51.12.1
Видео
Идентификатор : 0
Формат : AVC
Формат/Информация : Advanced Video Codec
Профиль формата : [url=mailto:[email protected]][email protected][/url]
Параметр CABAC формата : Нет
Параметр ReFrames формата : 1 кадр
Параметр GOP формата : M=1, N=12
Идентификатор кодека : H264
Продолжительность : 42 м.
Вид битрейта : Переменный
Битрейт : 1568 Кбит/сек
Максимальный битрейт : 2250 Кбит/сек
Ширина : 640 пикселей
Высота : 480 пикселей
Соотношение сторон : 4:3
Частота кадров : 25,000 кадров/сек
Частота кадров в оригинале : 24,000 кадра/сек
Цветовое пространство : YUV
Субдискретизация насыщенности : 4:2:0
Битовая глубина : 8 бит
Тип развёртки : Прогрессивная
Бит/(Пиксели*Кадры) : 0.204
Размер потока : 481 Мбайт (83%)
Аудио
Идентификатор : 1
Формат : MPEG Audio
Версия формата : Version 1
Профиль формата : Layer 3
Режим : Joint stereo
Идентификатор кодека : 55
Идентификатор кодека/Подсказка : MP3
Продолжительность : 42 м.
Вид битрейта : Постоянный
Битрейт : 320 Кбит/сек
Каналы : 2 канала
Частота : 44,1 КГц
Метод сжатия : С потерями
Размер потока : 98,2 Мбайт (17%)
Выравнивание : Соединение по промежуткам
Продолжительность промежутка : 26 мс. (0,65 видеокадр)
Библиотека кодирования : LAME3.97ЄЄЄЄЄЄЄЄЄЄЄЄ
Время раздачи: с 9:00 до 21:00
Other forum [Profile] [PM]
Display posts from previous:    
Reply to topic

The time now is: Today 03:04

All times are GMT + 3 Hours



You cannot post new topics in this forum
You cannot reply to topics in this forum
You cannot edit your posts in this forum
You cannot delete your posts in this forum
You cannot vote in polls in this forum
You cannot attach files in this forum
You cannot download files in this forum