Today is a free download without charge Download

Большие надежды / Great Expectations (Майк Ньюэлл) [2012, США, Драма, DVD9]

Reply to topic
 
Author
Message

Meshanik ®

Gender:

Longevity: 8 years 10 months

Posts: 3866

Location: Los Angeles

Торрент-статистика

Post 03-Mar-2013 23:32

[Quote]

Большие надежды / Great Expectations- Русское название: Большие надежды
Оригинальное название: Great Expectations
Год выпуска: 2012
Производство: Великобритания, США
Жанр: Драма
Продолжительность: 02:03:06
Перевод: Дублированный (Лицензия)
Субтитры: Вшитые отключаемые
Язык субтитров: Русский-Режиссер: Майк Ньюэлл
Актеры: Джереми Ирвин, Холлидей Грейнджер, Рэйф Файнс, Хелена Бонем Картер, Джейсон Флеминг, Робби Колтрейн, Юэн Бремнер, Салли Хокинс, Дэвид Уоллиамс, Софи Рандл-Описание фильма:
В центре сюжета — история молодого человека по имени Пип, который рано остался без родителей и был воспитан взбалмошной сестрой. Серая жизнь Пипа круто меняется, когда он помогает на кладбище освободиться от кандалов беглому каторжнику. Именно этот поступок вскоре приводит к череде головокружительных событий в жизни молодого человека.- -Дата мировой премьеры: 11 сентября 2012
Дата российской премьеры: 24 января 2013, «Каравелла DDC»
Дата выхода DVD релиза: 6 марта 2013, «Кармен Видео», «ВС трейд»-Качество видео: DVD9
Видеокодек: MPEG-2
Битрейт видео: ~5859 kbps
Размер кадра: PAL 16:9 ([email protected]х576)
Аудио 1: AC3, 6 ch, 384 kbps (Дублированный, Русский)
Аудио 2: AC3, 2 ch, 192 kbps (Дублированный, Русский)
-Доп. материалы: Отсутствуют

MediaInfo:

Общее
Полное имя : Bolshie.nadezhdy.2012.DVD9\VIDEO_TS\VTS_01_2.VOB
Формат : MPEG-PS
Размер файла : 1024 Мбайт
Продолжительность : 21 м.
Режим общего битрейта : Переменный
Общий поток : 6566 Кбит/сек
Видео
Идентификатор : 224 (0xE0)
Формат : MPEG Video
Версия формата : Version 2
Профиль формата : [email protected]
Параметр BVOP формата : Да
Параметр матрицы формата : Выборочная
Параметр GOP формата : M=3, N=15
Продолжительность : 21 м.
Вид битрейта : Переменный
Битрейт : 5859 Кбит/сек
Максимальный битрейт : 8500 Кбит/сек
Ширина : 720 пикселей
Высота : 576 пикселей
Соотношение сторон : 16:9
Частота кадров : 25,000 кадров/сек
Стандарт вещания : PAL
Цветовое пространство : YUV
Субдискретизация насыщенности : 4:2:0
Битовая глубина : 8 бит
Тип развёртки : Чересстрочная
Порядок развёртки : Верхнее поле первое
Метод сжатия : С потерями
Бит/(Пиксели*Кадры) : 0.565
Размер потока : 914 Мбайт (89%)
Аудио #1
Идентификатор : 189 (0xBD)-128 (0x80)
Формат : AC-3
Формат/Информация : Audio Coding 3
Расширение режима : CM (complete main)
Режим смешивания : DVD-Video
Продолжительность : 21 м.
Вид битрейта : Постоянный
Битрейт : 384 Кбит/сек
Каналы : 6 каналов
Расположение каналов : Front: L C R, Side: L R, LFE
Частота : 48,0 КГц
Битовая глубина : 16 бит
Метод сжатия : С потерями
Задержка видео : -616 мс.
Размер потока : 59,9 Мбайт (6%)
Аудио #2
Идентификатор : 189 (0xBD)-129 (0x81)
Формат : AC-3
Формат/Информация : Audio Coding 3
Расширение режима : CM (complete main)
Режим смешивания : DVD-Video
Продолжительность : 21 м.
Вид битрейта : Постоянный
Битрейт : 192 Кбит/сек
Каналы : 2 канала
Расположение каналов : Front: L R
Частота : 48,0 КГц
Битовая глубина : 16 бит
Метод сжатия : С потерями
Задержка видео : -488 мс.
Размер потока : 29,9 Мбайт (3%)
Текст
Идентификатор : 189 (0xBD)-32 (0x20)
Формат : RLE
Формат/Информация : Run-length encoding
Режим смешивания : DVD-Video
Продолжительность : 21 м.
Задержка видео : 3 с. 320 мс.
Меню

DVDInfo:

Title: Bolshie.nadezhdy.2012.DVD9
Size: 5.95 Gb ( 6 244 234,00 KBytes ) - DVD-9
Enabled regions: 1, 2, 3, 4, 5, 6, 7, 8
VTS_01 :
Play Length: 00:00:01+02:03:06+00:00:01
Video: PAL 16:9 (720x576) VBR, Auto Letterboxed
Audio:
Russian (Dolby AC3, 6 ch)
Russian (Dolby AC3, 2 ch)
Subtitles:
Russian
VTS_02 :
Play Length: 00:00:01+00:00:05+00:00:13
Video: PAL 16:9 (720x576) VBR, Auto Letterboxed
Audio:
Russian (Dolby AC3, 6 ch)
VTS_03 :
Play Length: 00:00:01+00:05:13+00:00:01
Video: PAL 16:9 (720x576) VBR, Auto Letterboxed
Audio:
Russian (Dolby AC3, 2 ch)
VTS_04 :
Play Length: 00:00:01+00:00:08+00:00:01
Video: PAL 16:9 (720x576) VBR, Auto Letterboxed
Audio:
Russian (Dolby AC3, 2 ch)
* Menus Information *
VIDEO_TS Menu
Video:
NTSC 4:3 (720x480) VBR
Auto Pan&Scan, Auto Letterboxed
Russian Language Unit :
Title Menu
VTS_01 Menu
Video:
PAL 16:9 (720x576) VBR
Auto Letterboxed
Audio:
Not specified (Dolby AC3, 2 ch)
Russian Language Unit :
Root Menu
VTS_02 Menu
Video:
NTSC 4:3 (720x480) VBR
Auto Pan&Scan, Auto Letterboxed
Language Unit :
Angle menu
Language Unit :
Root Menu
Language Unit :
Root Menu
VTS_03 Menu
Video:
NTSC 4:3 (720x480) VBR
Auto Pan&Scan, Auto Letterboxed
Language Unit :
Angle menu
Language Unit :
Root Menu
Chapter (PTT) Menu
Language Unit :
Root Menu
Chapter (PTT) Menu
VTS_04 Menu
Video:
NTSC 4:3 (720x480) VBR
Auto Pan&Scan, Auto Letterboxed
Language Unit :
Angle menu
Language Unit :
Root Menu
Chapter (PTT) Menu
Language Unit :

Меню DVD:

       
Скриншоты:
       
       
Other forum [Profile] [PM]
Similar theme
Forum Topic Author Torrent Replies Last Post
./templates/default/images/folder_dl.gif Развлекательные телепередачи и шоу, приколы и юмор Две звезды. Большой Новогодний концерт (2013) SATRip Omen
0 | 1

0 | 618

0

2013-01-28 04:33
Omen Latest
./templates/default/images/folder_dl.gif Медицина и Здоровье В.В.Похлебкин | Большая энциклопедия кулинарного искусства. Все рецепты В.В. Похлёбкина [2008] [FB2] UndegraundMen
1 | 0

0 | 957

0

2013-04-03 00:03
UndegraundMen Latest
./templates/default/images/folder_dl.gif Медицина и Здоровье Игорь Борщенко | Большая книга упражнений для спины: комплекс «Умный позвоночник» (2016) [FB2] Omen
1 | 0

0 | 2472

11

2016-08-23 01:01
Omen Latest
./templates/default/images/folder_dl.gif Фантастика, фэнтези, ужасы, мистика Мария Стрелова | Метро 2033: Нас больше нет (2018) [FB2] }{@R0N
1 | 0

0 | 689

1

2018-08-05 12:54
}{@R0N Latest
Display posts from previous:    
Reply to topic

The time now is: Today 23:26

All times are GMT + 3 Hours



You cannot post new topics in this forum
You cannot reply to topics in this forum
You cannot edit your posts in this forum
You cannot delete your posts in this forum
You cannot vote in polls in this forum
You cannot attach files in this forum
You cannot download files in this forum