Today is a free download without charge Download

А снег кружит... / Серии: 1-4 из 4 (Владимир Тумаев) [2012, Социальная драма, HDTVRip 720p]

Reply to topic
 
Author
Message

Omen ®

Longevity: 9 years 1 month

Posts: 181086

Торрент-статистика

Post 03-Mar-2013 23:26

[Quote]

А снег кружит... -Год выпуска: 2012
Производство: Россия, Продюсерский центр "Фабула"
Жанр: Социальная драма
Продолжительность: 00:45:00
Режиссёр: Владимир Тумаев-В ролях: Юлия Кадушкевич, Сергей Загребнев, Вероника Пляшкевич, Виктор Балабанов, Евгения Жукович, Ольга Аксёнова-Кавалай, Яна Касперович-Описание: Казалось бы, жизнь Лены - девочки из провинции - удалась. Она сделала все, чтобы в свои неполные 30 лет стать известной телеведущей. У нее красивый обеспеченный муж, ее ценят и уважают. Но за этим благополучным фасадом скрывается глубоко несчастный человек. Потому что нельзя стать счастливой, отказавшись от настоящей любви и собственного ребенка в угоду карьере и славе. И вот теперь, чтобы найти себя прежнюю, ей необходимо вернуться назад, вновь завоевать любимого и стать настоящей матерью. А еще ей предстоит узнать правду, которую от нее скрывали столько лет…-Доп.информация:
Спасибо mydimka за предоставленный исходник!
Любая реклама ОТСУТСТВУЕТ!-Все раздачи сериала-Сэмпл-Качество: HDTVRip 720p
Формат: MKV
Видео кодек: H.264
Аудио кодек: AC3
Видео: 1280x720, 25 fps, x264 AVC ~5600 kbps avg, 0.243 bit/pixel
Аудио: 48 kHz, Audio Coding 3, 2 ch, ~192.00 kbps avg

MI

Общее
Уникальный идентификатор : 243655180791486097454156919037760855787 (0xB74E47E7B2042C2E89A8D26844335EEB)
Полное имя : D:\Раздачи\А снег кружит 2012 HDTVRip (720p)\А снег кружит 01 2012 HDTVRip (720p).mkv
Формат : Matroska
Размер файла : 1,85 Гбайт
Продолжительность : 45 м.
Общий поток : 5812 Кбит/сек
Программа кодирования : AVI-Mux GUI 1.17.8.3, Feb 16 201019:42:50
Библиотека кодирования : matroska muxer by Alexander Noe, build date Feb 16 2010
Видео
Идентификатор : 1
Формат : AVC
Формат/Информация : Advanced Video Codec
Профиль формата : [email protected]
Параметр CABAC формата : Да
Параметр ReFrames формата : 5 кадров
Идентификатор кодека : V_MPEG4/ISO/AVC
Продолжительность : 45 м.
Битрейт : 5600 Кбит/сек
Ширина : 1280 пикселей
Высота : 720 пикселей
Соотношение сторон : 16:9
Режим частоты кадров : Постоянный
Частота кадров : 25,000 кадров/сек
Цветовое пространство : YUV
Субдискретизация насыщенности : 4:2:0
Битовая глубина : 8 бит
Тип развёртки : Прогрессивная
Бит/(Пиксели*Кадры) : 0.243
Размер потока : 1,75 Гбайт (95%)
Библиотека кодирования : x264 core 116 r2044 392e762
Настройки программы : cabac=1 / ref=5 / deblock=1:-1:-1 / analyse=0x3:0x113 / me=umh / subme=10 / psy=1 / psy_rd=0.00:0.10 / mixed_ref=1 / me_range=32 / chroma_me=1 / trellis=2 / 8x8dct=1 / cqm=0 / deadzone=21,11 / fast_pskip=0 / chroma_qp_offset=-1 / threads=12 / sliced_threads=0 / nr=0 / decimate=1 / interlaced=0 / bluray_compat=0 / constrained_intra=0 / bframes=5 / b_pyramid=2 / b_adapt=1 / b_bias=0 / direct=1 / weightb=1 / open_gop=0 / weightp=2 / keyint=250 / keyint_min=25 / scenecut=40 / intra_refresh=0 / rc_lookahead=40 / rc=abr / mbtree=1 / bitrate=5600 / ratetol=1.0 / qcomp=0.60 / qpmin=0 / qpmax=69 / qpstep=4 / ip_ratio=1.40 / aq=1:1.00
Default : Да
Forced : Нет
Аудио
Идентификатор : 2
Формат : AC-3
Формат/Информация : Audio Coding 3
Расширение режима : CM (complete main)
Параметр Endianness формата : Big
Идентификатор кодека : A_AC3
Продолжительность : 45 м.
Вид битрейта : Постоянный
Битрейт : 192 Кбит/сек
Каналы : 2 канала
Расположение каналов : Front: L R
Частота : 48,0 КГц
Битовая глубина : 16 бит
Метод сжатия : С потерями
Размер потока : 62,5 Мбайт (3%)
Default : Да
Forced : Нет

Скриншоты

Other forum [Profile] [PM]
Display posts from previous:    
Reply to topic

The time now is: Today 05:13

All times are GMT + 3 Hours



You cannot post new topics in this forum
You cannot reply to topics in this forum
You cannot edit your posts in this forum
You cannot delete your posts in this forum
You cannot vote in polls in this forum
You cannot attach files in this forum
You cannot download files in this forum