Today is a free download without charge Download

Сканнеры / Scanners (Дэвид Кроненберг / David Cronenberg) [1981, Канада, ужасы, фантастика, BDRip 1080p] DVO (D2Lab) + DVO + AVO (Михалев) + Original (Eng) + Subs (Rus, Eng, Ger)

Reply to topic
 
Author
Message

Omen ®

Longevity: 8 years 5 months

Posts: 181087

Торрент-статистика

Post 03-Mar-2013 23:26

[Quote]

Сканнеры / Scanners- Страна: Канада
Жанр: ужасы, фантастика
Год выпуска: 1981
Продолжительность: 01:43:05-Перевод #1: Профессиональный (двухголосый закадровый) - D2Lab
Перевод #2: Профессиональный (двухголосый закадровый)
Перевод #3: Авторский (одноголосый закадровый) - Алексей Михалев
Cубтитры: Russian, English, German
Оригинальная аудиодорожка: английская-Режиссер: Дэвид Кроненберг / David Cronenberg
В ролях: Дженнифер О’Нил, Стивен Лэк, Патрик МакГуэн, Лоуренс Дэйн, Майкл Айронсайд, Роберт А. Силверман, Ли Брокер, Мавор Мур, Адам Людвиг, Мюррэй Крачли- | Релиз: by Skazhutin-Описание: Они живут среди нас - сканеры, умеющие читать мозг других и умеющие убивать своим мозгом. Один из сканеров, Кэмерон Вейл, по просьбе доктора Пола Рута, специалиста по психическим отклонениям, пытается разыскать сканера Дэррила Ривока, который стоит во главе тайной организации, преследующей цель установить господство сканеров во всем мире. На помощь Кэмерону приходит Ким Обрист, обладающая подобным же даром управлять чужим разумом.-Сэмпл: Scanners.1981.1080p.BDRip.3xRus.Eng.HDCLUB.sample.mkv-Тип релиза: BDRip 1080p
Контейнер: MKV-Видео: H264, 1920x1040, 19.3 Mbps at 23.976 fps (CRF 18.00, L4.1)
Аудио #1: Russian: 48 kHz, AC3, 2/0 (L,R) ch, ~192.00 kbps avg |Двухголосый закадровый, D2Lab|
Аудио #2: Russian: 48 kHz, AC3, 2/0 (L,R) ch, ~192.00 kbps avg |Двухголосый закадровый|
Аудио #3: Russian: 48 kHz, AC3, 2/0 (L,R) ch, ~192.00 kbps avg |Одноголосый закадровый, А. Михалев|
Аудио #4: English: 48 kHz/24-bit, FLAC 2/0, ~712.00 kbps avg-

MediaInfo

GeneralComplete name : H:\DVDHD\Scanners.1981.1080p.BluRay.3xRus.Eng.HDCLUB-Skazhutin.mkvFormat : MatroskaFile size : 14.9 GiBDuration : 1h 44mnOverall bit rate : 20.4 MbpsMovie name : Scanners (1981) - Release for HDCLUB by SkazhutinEncoded date : UTC 2013-02-27 01:40:05Writing application : mkvmerge v6.0.0 ('Coming Up For Air') built on Jan 20 2013 09:52:00Writing library : libebml v1.3.0 + libmatroska v1.4.0Cover : Yes / Yes
VideoID : 1Format : AVCFormat/Info : Advanced Video CodecFormat profile : [email protected] settings, CABAC : YesFormat settings, ReFrames : 4 framesMuxing mode : Container [email protected] ID : V_MPEG4/ISO/AVCDuration : 1h 44mnWidth : 1 920 pixelsHeight : 1 040 pixelsDisplay aspect ratio : 16:9Frame rate : 23.976 fpsResolution : 8 bitsColorimetry : 4:2:0Scan type : ProgressiveTitle : Release for HDCLUBWriting library : x264 core 129Encoding settings : cabac=1 / ref=4 / deblock=1:-3:-3 / analyse=0x3:0x113 / me=umh / subme=11 / psy=1 / fade_compensate=0.00 / psy_rd=1.00:0.00 / mixed_ref=1 / me_range=48 / chroma_me=1 / trellis=2 / 8x8dct=1 / cqm=0 / deadzone=21,11 / fast_pskip=1 / chroma_qp_offset=-2 / threads=12 / lookahead_threads=2 / sliced_threads=0 / nr=0 / decimate=1 / interlaced=0 / bluray_compat=0 / constrained_intra=0 / bframes=16 / b_pyramid=2 / b_adapt=2 / b_bias=0 / direct=3 / weightb=1 / open_gop=0 / weightp=2 / keyint=250 / keyint_min=23 / scenecut=40 / intra_refresh=0 / rc_lookahead=40 / rc=crf / mbtree=0 / crf=18.0000 / qcomp=0.60 / qpmin=0 / qpmax=69 / qpstep=4 / vbv_maxrate=50000 / vbv_bufsize=62500 / crf_max=0.0 / nal_hrd=none / ip_ratio=1.40 / pb_ratio=1.30 / aq=1:0.70Matrix coefficients : BT.709-5, BT.1361, IEC 61966-2-4 709, SMPTE RP177
Audio #1ID : 2Format : AC-3Format/Info : Audio Coding 3Codec ID : A_AC3Duration : 1h 44mnBit rate mode : ConstantBit rate : 192 KbpsChannel(s) : 2 channelsChannel positions : L RSampling rate : 48.0 KHzStream size : 143 MiB (1%)Title : AC3 2.0 @ 192 kbps - DVO, D2LabLanguage : Russian
Audio #2ID : 3Format : AC-3Format/Info : Audio Coding 3Codec ID : A_AC3Duration : 1h 44mnBit rate mode : ConstantBit rate : 192 KbpsChannel(s) : 2 channelsChannel positions : L RSampling rate : 48.0 KHzStream size : 143 MiB (1%)Title : AC3 2.0 @ 192 kbps - DVOLanguage : Russian
Audio #3ID : 4Format : AC-3Format/Info : Audio Coding 3Codec ID : A_AC3Duration : 1h 44mnBit rate mode : ConstantBit rate : 192 KbpsChannel(s) : 2 channelsChannel positions : L RSampling rate : 48.0 KHzStream size : 143 MiB (1%)Title : AC3 2.0 @ 192 kbps - VO, MihalevLanguage : Russian
Audio #4ID : 5Format : FLACFormat/Info : Free Lossless Audio CodecCodec ID : A_FLACDuration : 1h 44mnBit rate mode : VariableChannel(s) : 2 channelsSampling rate : 48.0 KHzResolution : 24 bitsTitle : FLAC 2.0 @ 712 kbpsWriting library : libFLAC 1.2.1 (UTC 2007-09-17)
Text #1ID : 6Format : UTF-8Codec ID : S_TEXT/UTF8Codec ID/Info : UTF-8 Plain TextLanguage : Russian
Text #2ID : 7Format : UTF-8Codec ID : S_TEXT/UTF8Codec ID/Info : UTF-8 Plain Text
Text #3ID : 8Format : UTF-8Codec ID : S_TEXT/UTF8Codec ID/Info : UTF-8 Plain TextLanguage : German
Menu00:00:00.000 : en:Chapter 100:14:53.100 : en:Chapter 200:29:31.936 : en:Chapter 300:45:01.949 : en:Chapter 400:58:19.329 : en:Chapter 501:16:50.355 : en:Chapter 601:28:07.365 : en:Chapter 701:39:19.954 : en:Chapter 8

Скриншоты


Other forum [Profile] [PM]
Display posts from previous:    
Reply to topic

The time now is: Today 10:40

All times are GMT + 3 Hours



You cannot post new topics in this forum
You cannot reply to topics in this forum
You cannot edit your posts in this forum
You cannot delete your posts in this forum
You cannot vote in polls in this forum
You cannot attach files in this forum
You cannot download files in this forum