Today is a free download without charge Download

Тихий человек / The Quiet Man (Джон Форд / John Ford) [1952, США, драма, мелодрама, комедия, BDRip 720p] 3xMVO + Sub (Rus,Eng) + Original Eng

Reply to topic
 
Author
Message

Omen ®

Longevity: 8 years 5 months

Posts: 181087

Торрент-статистика

Post 03-Mar-2013 23:26

[Quote]

Тихий человек / The Quiet Man
Страна: США
Жанр: драма, мелодрама, комедия
Год выпуска: 1952
Продолжительность: 02:09:45
Перевод: Профессиональный (многоголосый закадровый)
Cубтитры: русские, английские
Оригинальная аудиодорожка: английский-Режиссер: Джон Форд / John Ford
В ролях: Джон Уэйн, Морин О’Хара, Бэрри Фицджералд, Уорд Бонд, Виктор МакЛаглен, Милдред Нэтвик, Френсис Форд, Эйлин Кроу, Мэй Крэйг, Артур Шилдс
Описание: Американский боксер Шон Тортом возвращается к себе на родину в Ирландию, где влюбляется в чудесную девушку Мэри Кэт. Она — его идеал, такое светлое чувство он испытал впервые. Однако он подзабыл, что за народ живет в его родных краях. Ему приходится иметь дело с местными традициями и обычаями (включая выплату «калыма»). Да и тупоголовый упрямый братец юной феи далеко не подарок, он ведь главный забияка и драчун в городке. Но храброму Шону все нипочем — ведь он влюблен, решителен и смел, крепкий парень и может постоять за себя, боксерская школа не забыта.
IMDb || КиноПоиск-Тип релиза: BDRip 720p [DON]
Контейнер: MKV
Видео: H.264/AVC, 986x720 at 23.976 fps, ~11.3 Mbps
Аудио#1: Russian: 48 kHz, AC3, 2/0 (L,R) ch, 192.00 kbps |Многоголосый закадровый, SomeWax|
Аудио#2: Russian: 48 kHz, AC3, 2/0 (L,R) ch, 192.00 kbps |Многоголосый закадровый, New Dream Media|
Аудио#3: Russian: 48 kHz, AC3, 2/0 (L,R) ch, 192.00 kbps |Многоголосый закадровый, Светла|
Аудио#4: English: 48 kHz, DTS, 1.0 ch, 755.00 kbps
Формат субтитров: softsub (SRT)
Сэмпл

MediaInfo

x264 Info

x264 [info]: frame I:1109 Avg QP:14.96 size:193818
x264 [info]: frame P:35102 Avg QP:17.30 size: 95346
x264 [info]: frame B:150437 Avg QP:19.77 size: 49358
x264 [info]: consecutive B-frames: 0.8% 0.7% 2.7% 14.3% 15.4% 54.5% 8.5% 3.0%
Format : Matroska
Format version : Version 2
File size : 11.5 GiB
Duration : 2h 9mn
Overall bit rate : 12.6 Mbps
Encoded date : UTC 2013-03-03 15:53:43
Writing application : mkvmerge v5.0.1 ('Es ist Sommer') built on Nov 6 2011 16:23:40
Writing library : libebml v1.2.2 + libmatroska v1.3.0
Video
ID : 1
Format : AVC
Format/Info : Advanced Video Codec
Format profile : [email protected]
Format settings, CABAC : Yes
Format settings, ReFrames : 11 frames
Codec ID : V_MPEG4/ISO/AVC
Duration : 2h 9mn
Bit rate : 11.3 Mbps
Width : 986 pixels
Height : 720 pixels
Display aspect ratio : 4:3
Frame rate : 23.976 fps
Color space : YUV
Chroma subsampling : 4:2:0
Bit depth : 8 bits
Scan type : Progressive
Bits/(Pixel*Frame) : 0.663
Stream size : 10.0 GiB (87%)
Title : The Quiet Man. (1952). 720p-DON
Writing library : x264 core 120 r2164+656 2ff844c
Encoding settings : cabac=1 / ref=11 / deblock=1:-3:-3 / analyse=0x3:0x133 / me=umh / subme=10 / psy=1 / fade_compensate=0.00 / psy_rd=0.90:0.07 / mixed_ref=1 / me_range=32 / chroma_me=1 / trellis=2 / 8x8dct=1 / cqm=0 / deadzone=21,11 / fast_pskip=0 / chroma_qp_offset=-3 / threads=3 / sliced_threads=0 / nr=0 / decimate=0 / interlaced=0 / bluray_compat=0 / constrained_intra=0 / fgo=0 / bframes=7 / b_pyramid=2 / b_adapt=2 / b_bias=0 / direct=3 / weightb=1 / open_gop=0 / weightp=2 / keyint=250 / keyint_min=23 / scenecut=40 / intra_refresh=0 / rc=2pass / mbtree=0 / bitrate=11291 / ratetol=1.0 / qcomp=0.70 / qpmin=0 / qpmax=69 / qpstep=4 / cplxblur=20.0 / qblur=0.5 / ip_ratio=1.40 / pb_ratio=1.30 / aq=3:0.95
Language : English
Default : Yes
Forced : No
Audio #1
ID : 2
Format : AC-3
Format/Info : Audio Coding 3
Mode extension : CM (complete main)
Codec ID : A_AC3
Duration : 2h 9mn
Bit rate mode : Constant
Bit rate : 192 Kbps
Channel(s) : 2 channels
Channel positions : Front: L R
Sampling rate : 48.0 KHz
Bit depth : 16 bits
Compression mode : Lossy
Stream size : 178 MiB (2%)
Title : SomeWax
Language : Russian
Default : Yes
Forced : No
Audio #2
ID : 3
Format : AC-3
Format/Info : Audio Coding 3
Mode extension : CM (complete main)
Codec ID : A_AC3
Duration : 2h 9mn
Bit rate mode : Constant
Bit rate : 192 Kbps
Channel(s) : 2 channels
Channel positions : Front: L R
Sampling rate : 48.0 KHz
Bit depth : 16 bits
Compression mode : Lossy
Stream size : 178 MiB (2%)
Title : New Dream Media
Language : Russian
Default : No
Forced : No
Audio #3
ID : 4
Format : AC-3
Format/Info : Audio Coding 3
Format profile : Dolby Digital
Mode extension : CM (complete main)
Codec ID : A_AC3
Duration : 2h 9mn
Bit rate mode : Constant
Bit rate : 192 Kbps
Channel(s) : 2 channels
Channel positions : Front: L R
Sampling rate : 48.0 KHz
Bit depth : 16 bits
Compression mode : Lossy
Stream size : 178 MiB (2%)
Title : Светла
Language : Russian
Default : No
Forced : No
Audio #4
ID : 5
Format : DTS
Format/Info : Digital Theater Systems
Codec ID : A_DTS
Duration : 2h 9mn
Bit rate mode : Constant
Bit rate : 755 Kbps
Channel(s) : 1 channel
Channel positions : Front: C
Sampling rate : 48.0 KHz
Bit depth : 16 bits
Compression mode : Lossy
Stream size : 700 MiB (6%)
Language : English
Default : No
Forced : No
Text #1
ID : 6
Format : UTF-8
Codec ID : S_TEXT/UTF8
Codec ID/Info : UTF-8 Plain Text
Language : Russian
Default : No
Forced : No
Text #2
ID : 7
Format : UTF-8
Codec ID : S_TEXT/UTF8
Codec ID/Info : UTF-8 Plain Text
Language : English
Default : No
Forced : No
Menu
00:00:00.000 : :00:00:00.000
00:11:35.612 : :00:11:35.612
00:19:38.177 : :00:19:38.177
00:29:16.213 : :00:29:16.213
00:42:05.690 : :00:42:05.690
00:49:41.145 : :00:49:41.145
00:58:54.197 : :00:58:54.197
01:10:06.411 : :01:10:06.411
01:21:30.010 : :01:21:30.010
01:29:37.956 : :01:29:37.956
01:46:37.516 : :01:46:37.516
01:53:58.373 : :01:53:58.373

Скриншоты

DON vs Source
Other forum [Profile] [PM]
Display posts from previous:    
Reply to topic

The time now is: Today 11:11

All times are GMT + 3 Hours



You cannot post new topics in this forum
You cannot reply to topics in this forum
You cannot edit your posts in this forum
You cannot delete your posts in this forum
You cannot vote in polls in this forum
You cannot attach files in this forum
You cannot download files in this forum