Today is a free download without charge Download

Они были солдатами 2 / Святые и солдаты: Бортовое кредо / Saints and Soldiers: Airborne Creed (Райан Литтл / Ryan Little) [2012, США, военный, BDRip 1080p] DVO (НТВ+) + VO (VANO) + Original (Eng)

Reply to topic
 
Author
Message

Omen ®

Longevity: 8 years 5 months

Posts: 181087

Торрент-статистика

Post 03-Mar-2013 23:26

[Quote]

Они были солдатами 2 / Святые и солдаты: Бортовое кредо / Saints and Soldiers: Airborne Creed Страна: США
Студия: Go Films
Жанр: военный
Год выпуска: 2012
Продолжительность: 01:37:58
Перевод:
  • Профессиональный (двухголосый закадровый) НТВ+
  • Одноголосый закадровый VANO
Cубтитры: нет
Оригинальная аудиодорожка: английский
Режиссер: Райан Литтл / Ryan Little
В ролях: Корбин Оллред, Джасен Вэйд, Бренден Уитни, Линкольн Хопп, Дэвид Нибли, Нишелль Эйден, Эндрю В. Джонсон, Крис Провост, Иван Р. Бёрд, Лэнс Отто
Описание:
15 августа 1944 года взвод 517-ого парашютно-десантного полка был заброшен на территорию южной Франции для поддержки наступления союзных войск на Берлин. Приземляясь на вражеской территории десантники вступают в непосредственное боестолкновение с противником. При выполнении миссии трое парашютистов встречаются с участниками группы Французского Сопротивления. Они решают помочь, рискуя своей жизнью, французским военным, попавшим в плен к врагу, и тем самым поддержать жизненное Кредо Десантника.
- || -Тип релиза: BDRip 1080p (рип от HDS)
Контейнер: MKV
Видео: AVC (x264), 1920x816 (2,35:1) at 23,976 fps, 10200 Кbps, 0.272 bpp
Аудио 1: AC3; 192 Kbps; CBR; 2 ch; 48 khz | P, DVO - НТВ+ |
Аудио 2: AC3; 224 Kbps; CBR; 2 ch; 48 khz | VO - VANO |
Аудио 3: DTS; 1536 Kbps; CBR; 6 ch; 48 khz; 24 bit | Английский |

Скриншоты || x264 Info || MediaInfo || Notes

Notes:

Цитата:
  • Аудио дорожка №1 взята с этой раздачи, thx: bratec 2
  • Аудио дорожка №2 взята с этой раздачи, thx: GORENOISE
  • Поименованные главы взяты с Saints.and.Soldiers.2.Airborne.Creed.German.2012.COMPLETE.PAL.DVDR-DF
  • Про Дорожку №2: изначально русская озвучка была смикширована на этот релиз Saint and Soldiers Airborn Creed 2012 DVDRip x264 AAC - DiVERSiTY, по этому спектр так четко зарезан.,
    ещё одной подсказкой был пустой LFE канал (: + битрейт был раздут с ~320 до 448 kbps-учитывая все эти недостатки, звук был сдаунмиксен и пережат в DD 2.0 @ 224 kbps

MediaInfo

Код:
Общее
Уникальный идентификатор                 : 227213109067264182859094643916709212785 (0xAAEFA72E59A1792D8543D1E0FDE6B271)
Полное имя                               : Они были солдатами 2.2012.L1.1080p.BluRay.x264-HDS.mkv
Формат                                   : Matroska
Версия формата                           : Version 4 / Version 2
Размер файла                             : 8,30 Гбайт
Продолжительность                        : 1 ч. 37 м.
Общий поток                              : 12,1 Мбит/сек
Название фильма                          : profile.php?mode=viewprofile&u=22488948
Дата кодирования                         : UTC 2013-03-01 18:39:05
Программа кодирования                    : mkvmerge v6.0.0 ('Coming Up For Air') built on Jan 20 2013 09:52:00
Библиотека кодирования                   : libebml v1.3.0 + libmatroska v1.4.0
Видео
Идентификатор                            : 1
Формат                                   : AVC
Формат/Информация                        : Advanced Video Codec
Профиль формата                          : [email protected]
Параметр CABAC формата                   : Да
Параметр ReFrames формата                : 5 кадров
Идентификатор кодека                     : V_MPEG4/ISO/AVC
Продолжительность                        : 1 ч. 37 м.
Битрейт                                  : 10,2 Мбит/сек
Ширина                                   : 1920 пикселей
Высота                                   : 816 пикселей
Соотношение сторон                       : 2,35:1
Частота кадров                           : 23,976 кадра/сек
Цветовое пространство                    : YUV
Субдискретизация насыщенности            : 4:2:0
Битовая глубина                          : 8 бит
Тип развёртки                            : Прогрессивная
Бит/(Пиксели*Кадры)                      : 0.272
Размер потока                            : 6,82 Гбайт (82%)
Библиотека кодирования                   : x264 core 129 r2230 1cffe9f
Настройки программы                      : cabac=1 / ref=5 / deblock=1:-3:-3 / analyse=0x3:0x113 / me=umh / subme=10 / psy=1 / psy_rd=1.20:0.00 / mixed_ref=1 / me_range=32 / chroma_me=1 / trellis=2 / 8x8dct=1 / cqm=0 / deadzone=21,11 / fast_pskip=0 / chroma_qp_offset=-2 / threads=12 / lookahead_threads=2 / sliced_threads=0 / nr=0 / decimate=1 / interlaced=0 / bluray_compat=0 / constrained_intra=0 / bframes=9 / b_pyramid=2 / b_adapt=2 / b_bias=0 / direct=3 / weightb=1 / open_gop=0 / weightp=2 / keyint=250 / keyint_min=23 / scenecut=40 / intra_refresh=0 / rc=2pass / mbtree=0 / bitrate=10200 / ratetol=1.0 / qcomp=0.60 / qpmin=0 / qpmax=69 / qpstep=4 / cplxblur=20.0 / qblur=0.5 / ip_ratio=1.40 / pb_ratio=1.30 / aq=1:1.10
Язык                                     : English
Default                                  : Да
Forced                                   : Нет
Аудио #1
Идентификатор                            : 2
Формат                                   : AC-3
Формат/Информация                        : Audio Coding 3
Расширение режима                        : CM (complete main)
Идентификатор кодека                     : A_AC3
Продолжительность                        : 1 ч. 37 м.
Вид битрейта                             : Постоянный
Битрейт                                  : 192 Кбит/сек
Каналы                                   : 2 канала
Расположение каналов                     : Front: L R
Частота                                  : 48,0 КГц
Битовая глубина                          : 16 бит
Метод сжатия                             : С потерями
Размер потока                            : 135 Мбайт (2%)
Заголовок                                : P, MVO [НТВ+]
Язык                                     : Russian
Default                                  : Да
Forced                                   : Нет
Аудио #2
Идентификатор                            : 3
Формат                                   : AC-3
Формат/Информация                        : Audio Coding 3
Расширение режима                        : CM (complete main)
Идентификатор кодека                     : A_AC3
Продолжительность                        : 1 ч. 37 м.
Вид битрейта                             : Постоянный
Битрейт                                  : 224 Кбит/сек
Каналы                                   : 2 канала
Расположение каналов                     : Front: L R
Частота                                  : 48,0 КГц
Битовая глубина                          : 16 бит
Метод сжатия                             : С потерями
Размер потока                            : 157 Мбайт (2%)
Заголовок                                : VO [VANO]
Язык                                     : Russian
Default                                  : Нет
Forced                                   : Нет
Аудио #3
Идентификатор                            : 4
Формат                                   : DTS
Формат/Информация                        : Digital Theater Systems
Идентификатор кодека                     : A_DTS
Продолжительность                        : 1 ч. 37 м.
Вид битрейта                             : Постоянный
Битрейт                                  : 1510 Кбит/сек
Каналы                                   : 6 каналов
Расположение каналов                     : Front: L C R, Side: L R, LFE
Частота                                  : 48,0 КГц
Битовая глубина                          : 24 бит
Метод сжатия                             : С потерями
Размер потока                            : 1,03 Гбайт (12%)
Язык                                     : English
Default                                  : Нет
Forced                                   : Нет
Меню
00:00:00.000                             : de:1:  GERMAN OCCUPATION
00:10:52.735                             : de:2:  PLACED ON ITSELF
00:20:59.550                             : de:3:  OLD MEMORIES
00:30:44.134                             : de:4:  EMILIE
00:39:34.455                             : de:5:  FRENCH HOSTAGES
00:47:22.339                             : de:6:  SHOOTING COMPETITION
01:01:27.517                             : de:7:  GERMAN PANZER
01:10:18.047                             : de:8:  REVENGE
01:25:42.471                             : de:9:  SURVIVES

x264 Info

x264 [info]: frame I:1031 Avg QP:11.94 size:237344
x264 [info]: frame P:35527 Avg QP:13.88 size: 94137
x264 [info]: frame B:104376 Avg QP:14.75 size: 37407
Other forum [Profile] [PM]
Display posts from previous:    
Reply to topic

The time now is: Today 10:28

All times are GMT + 3 Hours



You cannot post new topics in this forum
You cannot reply to topics in this forum
You cannot edit your posts in this forum
You cannot delete your posts in this forum
You cannot vote in polls in this forum
You cannot attach files in this forum
You cannot download files in this forum