Today is a free download without charge Download

Что скрывает ложь / What Lies Beneath (Роберт Земекис / Robert Zemeckis) [2000, США, мистический триллер, драма, Web-DL 720p] Dub + 2x AVO (Медведев, Живов) + Sub Rus, Eng + Original Eng

Reply to topic
 
Author
Message

Omen ®

Longevity: 8 years 5 months

Posts: 181087

Торрент-статистика

Post 03-Mar-2013 23:26

[Quote]

Что скрывает ложь / What Lies Beneath- Страна: США
Жанр: мистический триллер, драма
Год выпуска: 2000
Продолжительность: 02:09:53
Перевод 1: Профессиональный (дублированный)
Перевод 2: Авторский (одноголосый закадровый) Медведев
Перевод 3: Авторский (одноголосый закадровый) Живов
Cубтитры: русские, английские
Оригинальная аудиодорожка: английский-Режиссер: Роберт Земекис / Robert Zemeckis
В ролях: Мишель Пфайффер, Харрисон Форд, Дайана Скаруид, Венди Крюсон, Джеймс Римар, Миранда Отто, Джо Мортон, Эмбер Валлетта, Кэтрин Таун, Виктория Бидвелл-Описание: Муж Норман Спенсер (Форд), учёный исследователь и преподаватель, и жена Клэр (Пфайффер) остаются одни — дочь Беатрис уезжает в колледж. Их новые соседи Уоррен и Мэри Хьюз постоянно ссорятся, а потом слышны звуки бурной любви. Как то ночью Клэр видит, как сосед под дождем вытаскивает ковер и кладет его в багажник автомобиля. Ей везде начинают мерещиться убийства, а потом она самым настоящим образом видит привидение, дух пропавшей год назад студентки Мэдисон Элизабет Фрэнк, учившейся в классе её мужа. Клэр видит убиенную в реке и в ванне. Муж не верит ей, считая это последствиями аварии, когда Клэр на скорости врезалась в дерево. Психиатр же советует вступить с духом в контакт, что Клэр и пытается сделать вместе со своей подругой.
- -Тип релиза: Web-DL 720p
Контейнер: MKV
Видео: AVC, 1280x530, 3880 Kbps, 23.976 fps
Аудио 1: AC3, 48000 Hz, 448 Kbps, 6 channels - DUB (R5)
Аудио 2: AC3, 48000 Hz, 384 Kbps, 6 channels - AVO (Медведев)
Аудио 3: AC3, 48000 Hz, 384 Kbps, 6 channels - AVO (Живов)
Аудио 4: AC3, 48000 Hz, 384 Kbps, 6 channels - ENG (Original)
Формат субтитров: softsub (SRT) - русские, английские
-

Скриншоты




Резервные скриншоты





-

MediaInfo

Format : Matroska
Format version : Version 4 / Version 2
File size : 5.07 GiB
Duration : 2h 9mn
Overall bit rate : 5 592 Kbps
Movie name : Что скрывает ложь / What Lies Beneath (2000) WEB-DL 720p
Encoded date : UTC 2013-02-22 12:43:48
Writing application : mkvmerge v6.0.0 ('Coming Up For Air') built on Jan 20 2013 09:52:00
Writing library : libebml v1.3.0 + libmatroska v1.4.0
Attachment : Yes
Video
ID : 1
Format : AVC
Format/Info : Advanced Video Codec
Format profile : [email protected]
Format settings, CABAC : No
Format settings, ReFrames : 2 frames
Codec ID : V_MPEG4/ISO/AVC
Duration : 2h 9mn
Bit rate : 3 880 Kbps
Width : 1 280 pixels
Height : 530 pixels
Display aspect ratio : 2.40:1
Frame rate : 23.976 fps
Color space : YUV
Chroma subsampling : 4:2:0
Bit depth : 8 bits
Scan type : Progressive
Bits/(Pixel*Frame) : 0.239
Stream size : 3.52 GiB (69%)
Language : English
Default : Yes
Forced : No
Color primaries : BT.709-5, BT.1361, IEC 61966-2-4, SMPTE RP177
Transfer characteristics : BT.709-5, BT.1361
Matrix coefficients : BT.709-5, BT.1361, IEC 61966-2-4 709, SMPTE RP177
Audio #1
ID : 2
Format : AC-3
Format/Info : Audio Coding 3
Mode extension : CM (complete main)
Codec ID : A_AC3
Duration : 2h 9mn
Bit rate mode : Constant
Bit rate : 448 Kbps
Channel(s) : 6 channels
Channel positions : Front: L C R, Side: L R, LFE
Sampling rate : 48.0 KHz
Bit depth : 16 bits
Compression mode : Lossy
Stream size : 416 MiB (8%)
Title : DUB - R5
Language : Russian
Default : Yes
Forced : No
Audio #2
ID : 3
Format : AC-3
Format/Info : Audio Coding 3
Mode extension : CM (complete main)
Codec ID : A_AC3
Duration : 2h 9mn
Bit rate mode : Constant
Bit rate : 384 Kbps
Channel(s) : 6 channels
Channel positions : Front: L C R, Side: L R, LFE
Sampling rate : 48.0 KHz
Bit depth : 16 bits
Compression mode : Lossy
Stream size : 357 MiB (7%)
Title : AVO - Medvedev
Language : Russian
Default : No
Forced : No
Audio #3
ID : 4
Format : AC-3
Format/Info : Audio Coding 3
Mode extension : CM (complete main)
Codec ID : A_AC3
Duration : 2h 9mn
Bit rate mode : Constant
Bit rate : 384 Kbps
Channel(s) : 6 channels
Channel positions : Front: L C R, Side: L R, LFE
Sampling rate : 48.0 KHz
Bit depth : 16 bits
Compression mode : Lossy
Stream size : 357 MiB (7%)
Title : AVO - Zhivov
Language : Russian
Default : No
Forced : No
Audio #4
ID : 5
Format : AC-3
Format/Info : Audio Coding 3
Mode extension : CM (complete main)
Codec ID : A_AC3
Duration : 2h 9mn
Bit rate mode : Constant
Bit rate : 384 Kbps
Channel(s) : 6 channels
Channel positions : Front: L C R, Side: L R, LFE
Sampling rate : 48.0 KHz
Bit depth : 16 bits
Compression mode : Lossy
Stream size : 357 MiB (7%)
Title : ENG - Original
Language : English
Default : No
Forced : No
Text #1
ID : 6
Format : UTF-8
Codec ID : S_TEXT/UTF8
Codec ID/Info : UTF-8 Plain Text
Language : Russian
Default : No
Forced : No
Text #2
ID : 7
Format : UTF-8
Codec ID : S_TEXT/UTF8
Codec ID/Info : UTF-8 Plain Text
Language : English
Default : No
Forced : No
Menu
00:00:00.000 : en:Caitlin goes to college
00:06:28.000 : en:Noisy Neighbors
00:10:04.000 : en:Terrified Mrs. Feur
00:16:14.000 : en:Good Neighbors
00:20:16.000 : en:Opening Doors
00:27:17.000 : en:Spying on Mr. Feur
00:33:29.000 : en:Old Friends
00:37:35.000 : en:Reflections in the Tub
00:40:55.000 : en:Doctor's Visit
00:43:50.000 : en:Seance
00:51:07.000 : en:Something Is Happeneing To Me
00:54:53.000 : en:A Visit With Mary Feur
00:59:35.000 : en:Madison Elizabeth Frank
01:06:40.000 : en:Forbidden Fruit
01:16:49.000 : en:A Presence In Our House
01:22:38.000 : en:Excorcism By Fire
01:27:46.000 : en:I Will Make It Up To You
01:32:19.000 : en:Unlocking The Mystery
01:38:11.000 : en:Norman's Confession
01:42:42.000 : en:The Suicide Set Up
01:50:24.000 : en:Trying To Call For Help
01:56:03.000 : en:Over The Bridge
01:58:42.000 : en:Rest In Peace
02:03:01.000 : en:End Credits
-
Other forum [Profile] [PM]
Display posts from previous:    
Reply to topic

The time now is: Today 20:36

All times are GMT + 3 Hours



You cannot post new topics in this forum
You cannot reply to topics in this forum
You cannot edit your posts in this forum
You cannot delete your posts in this forum
You cannot vote in polls in this forum
You cannot attach files in this forum
You cannot download files in this forum