Today is a free download without charge Download

Незнайка на Луне / Серии 1-9 (из 12) (Юрий Бутырин, Андрей Игнатенко, Александр Люткевич) [1997-1998, фантастика, приключения, DVB] Многосерийная версия

Reply to topic
 
Author
Message

Omen ®

Longevity: 7 years 11 months

Posts: 181087

Торрент-статистика

Post 03-Mar-2013 23:26

[Quote]

Незнайка на Луне / Серии 1-9 (из 12)- Страна: Россия
Жанр: фантастика, приключения
Продолжительность: 9 серий по ~14 минут
Год выпуска: 1997-1998
Русские субтитры: нет-Режиссёр: Юрий Бутырин, Андрей Игнатенко, Александр Люткевич
Роли озвучивали: Венера Рахимова, Кристина Орбакайте, Светлана Степченко, Алексей Борзунов, Клара Румянова, Александр Леньков, Артем Карапетян, Михаил Кононов, Светлана Харлап и др.-Описание: "Незнайка на Луне" - грандиозный анимационный проект с участием звездных голосов российской эстрады Кристины Орбакайте в роли Звездочки и Валерия Меладзе с песенным хитом, как лейтмотивом фильма.
В очаровательной детской фантастике с захватывающим сюжетом, юмором и добротой за развлекательным жанром кроется глубокий смысл. Наряду с приключениями ребенка ждут жизненно важные знания об экономике, физике и астрономии. Веселая и поучительная история еще раз напомнит о вечных истинах, о том, что добро всегда побеждает зло.
Это интересная и поучительная сказка не оставит никого равнодушным и доставит огромное удовольствие от просмотра.-Доп. информация: Многосерийная версия мультфильма. Каждая из серий имеет начальные и конечные титры.
По какой-то не понятной причине "Карусель" показывал только 9 серий.-Релиз: -Качество: DVB
Формат: MKV
Видео: 720x576 (4:3), 25.000 fps, MPEG-2 Video, ~3401 Kbps, 0.328 bits/pixel
Аудио: 48.0 KHz, MPEG-1 Audio layer 2, 2 ch, 192 Kbps
Субтитры: отсутствуют

Подробные технические данные

GeneralComplete name : Незнайка на Луне. 1 серия. Загадка Лунного Камня.mpgFormat : MPEG-PSFile size : 370 MiBDuration : 14mn 6sOverall bit rate mode : VariableOverall bit rate : 3 666 Kbps
VideoID : 224 (0xE0)Format : MPEG VideoFormat version : Version 2Format profile : [email protected] settings, BVOP : YesFormat settings, Matrix : CustomFormat settings, GOP : M=3, N=12Duration : 14mn 6sBit rate mode : VariableBit rate : 3 401 KbpsMaximum bit rate : 5 000 KbpsWidth : 720 pixelsHeight : 576 pixelsDisplay aspect ratio : 4:3Frame rate : 25.000 fpsStandard : PALColor space : YUVChroma subsampling : 4:2:0Bit depth : 8 bitsScan type : InterlacedScan order : Top Field FirstCompression mode : LossyBits/(Pixel*Frame) : 0.328Time code of first frame : 00:00:00:00Time code source : Group of pictures headerStream size : 343 MiB (93%)
AudioID : 192 (0xC0)Format : MPEG AudioFormat version : Version 1Format profile : Layer 2Duration : 14mn 6sBit rate mode : ConstantBit rate : 192 KbpsChannel(s) : 2 channelsSampling rate : 48.0 KHzCompression mode : LossyStream size : 19.4 MiB (5%)
Other forum [Profile] [PM]
Display posts from previous:    
Reply to topic

The time now is: Today 18:15

All times are GMT + 3 Hours



You cannot post new topics in this forum
You cannot reply to topics in this forum
You cannot edit your posts in this forum
You cannot delete your posts in this forum
You cannot vote in polls in this forum
You cannot attach files in this forum
You cannot download files in this forum