Today is a free download without charge Download

VA - Big Day Out Festival (World Stage) [2013, Rock, HDTV 1080i]

Reply to topic
 
Author
Message

Omen ®

Longevity: 8 years 4 months

Posts: 181087

Торрент-статистика

Post 03-Mar-2013 23:26

[Quote]

VA - Big Day Out Festival (World Stage)
Жанр: Rock
Продолжительность: 43мин 25сек
Год выпуска: 2013Sydney, AUSTRALIA, January 18, 2013Favourite highlights from this year's Big Day Out festival. Temperatures reaching a record breaking 46 degrees couldn’t keep the over fifty five thousand fans away as sets performed by Red Hot Chili Peppers, The Killers, Band of Horses and Vampire Weekend were recorded in HD at the Sydney Showground at Sydney Olympic Park.
http://sydney.bigdayout.com/
Треклист:
01. Mr. Brightside - The Killers
02. Runaways - The Killers
03. When You Were Young - The Killers
04. Holiday - Vampire Weekend
05. California English - Vampire Weekend
06. A-Punk - Vampire Weekend
07. Is There A Ghost - Band Of Horses
08. Knock Knock - Band Of Horses
09. Higher Ground - Red Hot Chili Peppers
10. Look Around - Red Hot Chili Peppers
11. Give It Away - Red Hot Chili Peppers
Качество: HDTV 1080i
Контейнер: MKV
Видео кодек: H.264
Аудио кодек: AC3
Видео: Codec: V_MPEG4/ISO/AVC, 1920x1080i, 12.7 Mbps, 25 fps
Аудио: AC3, Chann. 2, SR:48 KHz, BR: 384 kb/s

МедиаИнфо/Скриншоты

Отчёт MediaInfo

GeneralComplete name : Big Day Out_Highlights.mkvFormat : MatroskaFile size : 4.06 GiBDuration : 43mn 25sOverall bit rate : 13.4 MbpsWriting application : mkvmerge v5.1.0 ('And so it goes') built on Feb 1 2012 11:32:58Writing library : libebml v1.2.2 + libmatroska v1.3.0
VideoID : 1Format : AVCFormat/Info : Advanced Video CodecFormat profile : [email protected] settings, CABAC : YesFormat settings, ReFrames : 4 framesMuxing mode : Container [email protected] ID : V_MPEG4/ISO/AVCDuration : 43mn 25sBit rate : 12.7 MbpsWidth : 1 920 pixelsHeight : 1 080 pixelsDisplay aspect ratio : 16:9Frame rate : 25.000 fpsColor space : YUVChroma subsampling : 4:2:0Bit depth : 8 bitsScan type : InterlacedScan order : Top Field FirstBits/(Pixel*Frame) : 0.246Stream size : 3.86 GiB (95%)Color primaries : BT.709-5, BT.1361, IEC 61966-2-4, SMPTE RP177Transfer characteristics : BT.709-5, BT.1361Matrix coefficients : BT.709-5, BT.1361, IEC 61966-2-4 709, SMPTE RP177
AudioID : 2Format : AC-3Format/Info : Audio Coding 3Format profile : Dolby DigitalMode extension : CM (complete main)Codec ID : A_AC3Duration : 43mn 25sBit rate mode : ConstantBit rate : 384 KbpsChannel(s) : 2 channelsChannel positions : Front: L RSampling rate : 48.0 KHzVideo delay : 36msStream size : 119 MiB (3%)
Other forum [Profile] [PM]
Display posts from previous:    
Reply to topic

The time now is: Today 21:16

All times are GMT + 3 Hours



You cannot post new topics in this forum
You cannot reply to topics in this forum
You cannot edit your posts in this forum
You cannot delete your posts in this forum
You cannot vote in polls in this forum
You cannot attach files in this forum
You cannot download files in this forum