Today is a free download without charge Download

Капитан Гордеев / Серии: 1 - 12 из 12 (Александр Бурцев, Мария Соловцова, Арменак Назикян, Владимир Чубриков) [2010, Детектив, SATRip-AVC]

Reply to topic
 
Author
Message

Omen ®

Longevity: 9 years 1 month

Posts: 181086

Торрент-статистика

Post 03-Mar-2013 13:52

[Quote]

Капитан Гордеев
Год выпуска: 2010
Производство: Intra Communications
Жанр: детектив
Продолжительность: ~ 00:47:00
Режиссёр: Александр Бурцев, Мария Соловцова, Арменак Назикян, Владимир Чубриков
В ролях: Виталий Емашов, Сергей Власов, Константин Панченко, Константин Воробьёв, Марианна Коробейникова, Иван Мацкевич, Ольга Филиппова, Святослав Астрамович, Владимир Иванов, Алеся Пуховая, Ольга Рептух, Валерий Зеленский, Юлия Кадушкевич, Александр Одинец, Олег Вебер, Сергей Пукита, Виктор Вержбицкий, Анна Лутцева, Нелли Попова, Евгений Пименов, Денис Тарасенко, Виктор Молчан, Юлия Полубинская, Никита Рулев, Андрей Голубев, Анатолий Голуб, Сергей Прокопич, Юлия Рудина, Артур Ваха, Ольга Самошина, Вячеслав Павлють, Сергей Шарангович, Олег Ткачев, Сергей Широчин, Сергей Новицкий, Игорь Сидорчик, Андрей Зибров, Александр Ильин, Татьяна Калих, Марта Голубева, Вячеслав Сикора, Ольга Сизова, Александр Пашкевич, Вера Рыбчинская, Игорь Верник, Максим Селяво, Светлана Никифорова, Светлана Зеленковская, Светлана Аникей, Константин Михаленко, Владимир Бухинник, Александр Суцковер, Тамара Миронова, Андрей Карако, Дмитрий Исаев, Андрей Олиференко, Андрей Кривецкий, Владимир Божков, Виталий Котовицкий
Описание: Капитан милиции Гордеев отличается артистизмом, наглостью и непредсказуемостью. Никто, даже начальство не может предположить, какие следующие шаги предпримет Гордеев, проводя очередное расследование. Как говорит его друг, майор Беляев: "Гордеев ведь краёв не видит, прёт напролом, пока убийцу не поймает, а потом и гуляет - тоже, с выкрутасами!" Капитан Гордеев всегда собран и готов к мгновенной импровизации и перевоплощению. Он молод и стремителен. Даже друзья и начальники не всегда поспевают за ним, хотя любят его и уважают. Но это не приносит ему чинов, поэтому Гордеев по званию - вечный капитан.
Доп. информация:

Сэмпл
Качество: SATRip-AVC
Формат: MKV
Видео кодек: H.264
Аудио кодек: AC3
Видео: AVC (H.264), [email protected] (16:9), 25.000 fps, 1892 kbps avg, 0.258 bit/pixel
Аудио: AC3, 48 kHz, 16 bits, 224 kbps, 2.0 ch

MI

Общее
Уникальный идентификатор : 194049009672344168337122705299170385317 (0x91FC7AD6D67E0A90AA7FCFA2D4BFDDA5)
Полное имя : G:\Video\Капитан.Гордеев.2010.SATRip-AVC.by.kvvk_2009\Капитан.Гордеев.01.серия.2010.SATRip-AVC.by.kvvk_2009.mkv
Формат : Matroska
Версия формата : Version 2
Размер файла : 718 Мбайт
Продолжительность : 47 м.
Общий поток : 2118 Кбит/сек
Дата кодирования : UTC 2013-02-27 11:23:06
Программа кодирования : mkvmerge v3.4.0 ('Rapunzel') built on May 15 2010 09:38:20
Библиотека кодирования : libebml v0.8.0 + libmatroska v0.9.0
Видео
Идентификатор : 1
Формат : AVC
Формат/Информация : Advanced Video Codec
Профиль формата : [email protected]
Параметр CABAC формата : Да
Параметр ReFrames формата : 9 кадров
Идентификатор кодека : V_MPEG4/ISO/AVC
Продолжительность : 47 м.
Битрейт : 1892 Кбит/сек
Ширина : 704 пикселя
Высота : 416 пикселей
Соотношение сторон : 16:9
Соотношение сторон в оригинале : 16:9
Частота кадров : 25,000 кадров/сек
Цветовое пространство : YUV
Субдискретизация насыщенности : 4:2:0
Битовая глубина : 8 бит
Тип развёртки : Прогрессивная
Бит/(Пиксели*Кадры) : 0.258
Размер потока : 628 Мбайт (87%)
Библиотека кодирования : x264 core 129 r2245 bc13772
Настройки программы : cabac=1 / ref=9 / deblock=1:-2:-2 / analyse=0x3:0x113 / me=umh / subme=9 / psy=1 / psy_rd=1.00:0.15 / mixed_ref=1 / me_range=32 / chroma_me=1 / trellis=2 / 8x8dct=1 / cqm=0 / deadzone=21,11 / fast_pskip=0 / chroma_qp_offset=-3 / threads=3 / lookahead_threads=1 / sliced_threads=0 / nr=0 / decimate=0 / interlaced=0 / bluray_compat=0 / constrained_intra=0 / bframes=9 / b_pyramid=2 / b_adapt=2 / b_bias=0 / direct=3 / weightb=1 / open_gop=0 / weightp=2 / keyint=250 / keyint_min=25 / scenecut=40 / intra_refresh=0 / rc=2pass / mbtree=0 / bitrate=1892 / ratetol=1.0 / qcomp=0.60 / qpmin=0 / qpmax=51 / qpstep=4 / cplxblur=20.0 / qblur=0.5 / ip_ratio=1.40 / pb_ratio=1.30 / aq=1:0.90
Язык : English
Default : Нет
Forced : Нет
Аудио
Идентификатор : 2
Формат : AC-3
Формат/Информация : Audio Coding 3
Расширение режима : CM (complete main)
Идентификатор кодека : A_AC3
Продолжительность : 47 м.
Вид битрейта : Постоянный
Битрейт : 224 Кбит/сек
Каналы : 2 канала
Расположение каналов : Front: L R
Частота : 48,0 КГц
Битовая глубина : 16 бит
Метод сжатия : С потерями
Размер потока : 76,0 Мбайт (11%)
Заголовок : AC3 2ch @ 224 kbps
Язык : Russian
Default : Да
Forced : Нет
Other forum [Profile] [PM]
Display posts from previous:    
Reply to topic

The time now is: Today 00:05

All times are GMT + 3 Hours



You cannot post new topics in this forum
You cannot reply to topics in this forum
You cannot edit your posts in this forum
You cannot delete your posts in this forum
You cannot vote in polls in this forum
You cannot attach files in this forum
You cannot download files in this forum