Today is a free download without charge Download

А снег кружит... / Серии: 1-4 из 4 (Владимир Тумаев) [2012, Социальная драма, HDTVRip]

Reply to topic
 
Author
Message

Omen ®

Longevity: 9 years 1 month

Posts: 181086

Торрент-статистика

Post 03-Mar-2013 13:52

[Quote]

А снег кружит...
Год выпуска: 2012
Производство: Россия, Продюсерский центр "Фабула"
Жанр: Социальная драма
Продолжительность: 4х ~ 00:45:00
Субтитры: нет
Режиссёр: Владимир Тумаев
В ролях: Юлия Кадушкевич, Сергей Загребнев, Вероника Пляшкевич, Виктор Балабанов, Евгения Жукович, Ольга Аксёнова-Кавалай, Яна Касперович
Описание: Казалось бы, жизнь Лены - девочки из провинции - удалась. Она сделала все, чтобы в свои неполные 30 лет стать известной телеведущей. У нее красивый обеспеченный муж, ее ценят и уважают. Но за этим благополучным фасадом скрывается глубоко несчастный человек. Потому что нельзя стать счастливой, отказавшись от настоящей любви и собственного ребенка в угоду карьере и славе. И вот теперь, чтобы найти себя прежнюю, ей необходимо вернуться назад, вновь завоевать любимого и стать настоящей матерью. А еще ей предстоит узнать правду, которую от нее скрывали столько лет…
Огромное спасибо posters-ks за предоставленный постер.
Сэмпл: http://multi-up.com/837917
Качество: HDTVRip
Формат: AVI
Видео кодек: XviD
Аудио кодек: AC3
Видео: 720x400 (1.80:1), 25 fps, XviD build 50 ~1639 kbps avg, 0.23 bit/pixel
Аудио: 48 kHz, AC3 Dolby Digital, 2/0 (L,R) ch, ~192.00 kbps avg
Релиз от:

MI

General
Complete name : V:\ftp4\Videos\А снег кружит...3.серия.2013.XviD.HDTVRip.Files-x.avi
Format : AVI
Format/Info : Audio Video Interleave
File size : 601 MiB
Duration : 45mn 37s
Overall bit rate : 1 842 Kbps
Writing application : VirtualDubMod 1.5.10.3 | www.virtualdub-fr.org || (build 2550/release)
Writing library : VirtualDubMod build 2550/release
Video
ID : 0
Format : MPEG-4 Visual
Format profile : Advanced [email protected]
Format settings, BVOP : 1
Format settings, QPel : No
Format settings, GMC : No warppoints
Format settings, Matrix : Default (H.263)
Codec ID : XVID
Codec ID/Hint : XviD
Duration : 45mn 37s
Bit rate : 1 640 Kbps
Width : 720 pixels
Height : 400 pixels
Display aspect ratio : 16:9
Frame rate : 25.000 fps
Color space : YUV
Chroma subsampling : 4:2:0
Bit depth : 8 bits
Scan type : Progressive
Compression mode : Lossy
Bits/(Pixel*Frame) : 0.228
Stream size : 535 MiB (89%)
Writing library : XviD 1.2.1 (UTC 2008-12-04)
Audio
ID : 1
Format : AC-3
Format/Info : Audio Coding 3
Mode extension : CM (complete main)
Format settings, Endianness : Big
Codec ID : 2000
Duration : 45mn 37s
Bit rate mode : Constant
Bit rate : 192 Kbps
Channel(s) : 2 channels
Channel positions : Front: L R
Sampling rate : 48.0 KHz
Bit depth : 16 bits
Compression mode : Lossy
Stream size : 62.7 MiB (10%)
Alignment : Split accross interleaves
Interleave, duration : 40 ms (1.00 video frame)
Interleave, preload duration : 500 ms

Скриншоты

Other forum [Profile] [PM]
Display posts from previous:    
Reply to topic

The time now is: Today 04:53

All times are GMT + 3 Hours



You cannot post new topics in this forum
You cannot reply to topics in this forum
You cannot edit your posts in this forum
You cannot delete your posts in this forum
You cannot vote in polls in this forum
You cannot attach files in this forum
You cannot download files in this forum