Today is a free download without charge Download

Матрица / Matrix (Энди Вачовски / Andy Wachowski, Ларри Вачовски / Larry Wachowski) [1999, США, Австралия, фантастика, боевик, триллер, HDTVRip 720p] VO VHS + Original Eng + Sub Rus-Eng

Reply to topic
 
Author
Message

Omen ®

Longevity: 8 years 5 months

Posts: 181087

Торрент-статистика

Post 03-Mar-2013 13:52

[Quote]

Матрица / Matrix
Страна: США, Австралия
Жанр: фантастика, боевик, триллер
Год выпуска: 1999
Продолжительность: 02:09:40
Перевод: одноголосый закадровый c VHS
Cубтитры: русские, английские
Оригинальная аудиодорожка: английский
Режиссер: Энди Вачовски / Andy Wachowski, Ларри Вачовски / Larry Wachowski
В ролях: Киану Ривз, Лоуренс Фишберн, Кэрри-Энн Мосс, Глория Фостер, Хьюго Уивинг, Джо Пантолиано, Маркус Чонг, Пол Годдард, Роберт Тэйлор, Джулиэн Араханга, Мэтт Доран, Белинда МакКлори, Энтони Рэй Паркер, Дэвид Эстон, Марк Грэй, Ада Никодему, Роуэн Уитт, Эленор Уитт, Билл Янг, Фиона Джонсон, Стив Додд, Лоуренс Вудворд, Бернард Леджер, Крис Скотт
Описание: Компьютерный хакер работающий в крупной электронной корпорации узнает от таинственных мятежников об истинном характере его реальности и его роли в войне против своего начальства.
Тип релиза: HDTVRip 720p
Cравнение с BDRip 720p :
http://screenshotcomparison.com/comparison/11033
http://screenshotcomparison.com/comparison/11036
Контейнер: MKV
Сэмпл: скачать
Видео: AVC/x264, 1280x720 (16:9), 7410kbps, 24fps
Аудио1: AC3 2ch, 48kHz, 640kbps, русский (VO VHS)
Аудио2: DTS 6ch, 48kHz, 1510kbps, английский (оригинал)
Субтитры1: UTF-8 Text, русские (отключены)
Субтитры2: UTF-8 Text, английские (отключены)

MediaInfo

Общее
Уникальный идентификатор : 182212938747500217071261626805038261097 (0x8914EF7CDA748A76BA891C8C7862A369)
Полное имя : Matrix.1999.HDTVRip.720p.Rus.Eng.Sub.VO-VHS.mkv
Формат : Matroska
Версия формата : Version 2
Размер файла : 9,28 Гбайт
Продолжительность : 2 ч. 09 м.
Режим общего битрейта : Переменный
Общий поток : 9753 Кбит/сек
Дата кодирования : UTC 2013-03-03 08:19:59
Программа кодирования : mkvmerge v5.5.0 ('Healer') built on Apr 6 2012 21:43:24
Библиотека кодирования : libebml v1.2.3 + libmatroska v1.3.0
Видео
Идентификатор : 1
Формат : AVC
Формат/Информация : Advanced Video Codec
Профиль формата : Mа[email protected]
Параметр CABAC формата : Да
Параметр ReFrames формата : 2 кадра
Идентификатор кодека : V_MPEG4/ISO/AVC
Продолжительность : 2 ч. 09 м.
Вид битрейта : Переменный
Битрейт : 7410 Кбит/сек
Номинальный битрейт : 8000 Кбит/сек
Максимальный битрейт : 40,0 Мбит/сек
Ширина : 1280 пикселей
Высота : 720 пикселей
Соотношение сторон : 16:9
Режим частоты кадров : Постоянный
Частота кадров : 24,000 кадра/сек
Цветовое пространство : YUV
Субдискретизация насыщенности : 4:2:0
Битовая глубина : 8 бит
Тип развёртки : Прогрессивная
Бит/(Пиксели*Кадры) : 0.33
Размер потока : 7,05 Гбайт (76%)
Заголовок : Matrix 1999 HDTVRip 720p Rus Eng Sub
Библиотека кодирования : x264 core 129 r2230 1cffe9f
Настройки программы : cabac=1 / ref=2 / deblock=1:0:0 / analyse=0x1:0x111 / me=hex / subme=7 / psy=1 / psy_rd=1.00:0.00 / mixed_ref=1 / me_range=16 / chroma_me=1 / trellis=1 / 8x8dct=0 / cqm=0 / deadzone=21,11 / fast_pskip=1 / chroma_qp_offset=-2 / threads=6 / lookahead_threads=1 / sliced_threads=0 / nr=0 / decimate=1 / interlaced=0 / bluray_compat=0 / constrained_intra=0 / bframes=3 / b_pyramid=0 / b_adapt=1 / b_bias=0 / direct=1 / weightb=1 / open_gop=0 / weightp=2 / keyint=250 / keyint_min=24 / scenecut=40 / intra_refresh=0 / rc_lookahead=40 / rc=abr / mbtree=1 / bitrate=8000 / ratetol=1.0 / qcomp=0.60 / qpmin=0 / qpmax=69 / qpstep=4 / ip_ratio=1.40 / aq=1:1.0
Default : Да
Forced : Нет
Аудио #1
Идентификатор : 2
Формат : AC-3
Формат/Информация : Audio Coding 3
Расширение режима : CM (complete main)
Параметр Endianness формата : Big
Идентификатор кодека : A_AC3
Продолжительность : 2 ч. 09 м.
Вид битрейта : Постоянный
Битрейт : 640 Кбит/сек
Каналы : 2 канала
Расположение каналов : Front: L R
Частота : 48,0 КГц
Битовая глубина : 16 бит
Метод сжатия : С потерями
Размер потока : 624 Мбайт (7%)
Заголовок : Rus AC3 6ch 48kHz - 640 kbps 16bit (VO VHS)
Язык : Russian
Default : Да
Forced : Нет
Аудио #2
Идентификатор : 3
Формат : DTS
Формат/Информация : Digital Theater Systems
Режим : 16
Параметр Endianness формата : Big
Идентификатор кодека : A_DTS
Продолжительность : 2 ч. 09 м.
Вид битрейта : Постоянный
Битрейт : 1510 Кбит/сек
Каналы : 6 каналов
Расположение каналов : Front: L C R, Side: L R, LFE
Частота : 48,0 КГц
Битовая глубина : 24 бит
Метод сжатия : С потерями
Задержка видео : 11 мс.
Размер потока : 1,44 Гбайт (15%)
Заголовок : Eng DTS 6ch 48kHz - 1510 kbps 24bit (Original)
Язык : English
Default : Нет
Forced : Нет
Текст #1
Идентификатор : 4
Формат : UTF-8
Идентификатор кодека : S_TEXT/UTF8
Идентификатор кодека/Информация : UTF-8 Plain Text
Заголовок : Rus Text - UTF-8
Язык : Russian
Default : Нет
Forced : Нет
Текст #2
Идентификатор : 5
Формат : UTF-8
Идентификатор кодека : S_TEXT/UTF8
Идентификатор кодека/Информация : UTF-8 Plain Text
Заголовок : Eng Text - UTF-8
Язык : English
Default : Нет
Forced : Нет

Скриншоты



Other forum [Profile] [PM]
Display posts from previous:    
Reply to topic

The time now is: Today 00:56

All times are GMT + 3 Hours



You cannot post new topics in this forum
You cannot reply to topics in this forum
You cannot edit your posts in this forum
You cannot delete your posts in this forum
You cannot vote in polls in this forum
You cannot attach files in this forum
You cannot download files in this forum