Today is a free download without charge Download

Покорители волн / Chasing Mavericks (Майкл Эптед / Michael Apted, Кёртис Хэнсон / Curtis Hanson) [2012, США, драма, спорт, BDRip 1080p] Dub + 2xSub (Rus, Eng) + Original Eng + Commentary (Eng)

Reply to topic
 
Author
Message

Omen ®

Longevity: 8 years 5 months

Posts: 181087

Торрент-статистика

Post 03-Mar-2013 13:52

[Quote]

Покорители волн / Chasing Mavericks
Страна: США
Жанр: драма, спорт
Год выпуска: 2012
Продолжительность: 01:56:30
Перевод: Профессиональный (дублированный)
Cубтитры: русские, английские
Оригинальная аудиодорожка: английский
-
Режиссер: Майкл Эптед / Michael Apted, Кёртис Хэнсон / Curtis Hanson
В ролях: Джерард Батлер, Джонни Уэстон, Элизабет Шу, Эбигейл Спенсер, Ливэн Рамбин, Грег Лонг, Питер Мэл, Зэк Уормхудт, Девин Криттенден, Тейлор Хэндли
-
Описание: Серфинг - спорт королей. Не каждый сможет справиться с огромными волнами у побережья Калифорнии. Их называют Мавериками, они достигают 25 метров в высоту. Хессон не раз покорял стихию, но не раскрыл своего секрета никому. Он дал обещание любимой женщине - больше не рисковать жизнью. Но смелость юного Джея подкупила Хессона. Смогут ли они, глядя смерти в лицо, удержаться на гребне волны?

За исправленную русскую дорогу с HDClub'а благодарность AndrewPlacid
Тип релиза: BDRip 1080p
Контейнер: MKV
Видео: H264 / NTSC 16:9 / 1920x1036 (1,85:1) / 14336 kbps / 23,976 fps / 0.301 bit/pixel / [email protected]
Аудио 1: Russian / AC3 / 48 kHz / 5.1 Ch / 448 kbps / 16 bit / DUB
Аудио 2: English / DTS / 48 kHz / 5.1 Ch / 1510 kbps / 24 bit / Original
Аудио 3: English / AC3 / 48 kHz / 2 Ch / 224 kbps / 16 bit / Commentary
Формат субтитров: softsub (SRT)
Навигация по главам: есть

Примечание

Цитата:
О русской дорожке:
Наши издатели в очередной раз воспользовались услугами криворуких звукорежиссёров. На первых 17 минутах центральный канал траскодирован по классическому методу ресемплинга, а вот остальные каналы в лучших традициях убиты бездарной перетяжкой с сохранением тональности.
Что было сделано:
Русский центр был идеально синхронизирован с английским. За основу был взят английский центр и необходимые места заменены на русский. Фронты также отредактированы, где необходимо была убрана английская речь, на дублирующий голос добавлены эффекты по аналогии с оригиналом.
Громкость каналов выровнена по аналогии с английской дорожкой.

MediaInfo

Общее
Уникальный идентификатор : 249500501149588562210574492792117487249 (0xBBB40C730A140D6E8370D4B0AF776691)
Полное имя : W:\BDRip 1080p\Chasing Mavericks.2012.BDRip.1080p.mkv
Формат : Matroska
Версия формата : Version 4 / Version 2
Размер файла : 13,4 Гбайт
Продолжительность : 1 ч. 56 м.
Общий поток : 16,5 Мбит/сек
Дата кодирования : UTC 2013-03-02 07:42:25
Программа кодирования : mkvmerge v6.0.0 ('Coming Up For Air') built on Jan 20 2013 09:52:00
Библиотека кодирования : libebml v1.3.0 + libmatroska v1.4.0
Видео
Идентификатор : 1
Формат : AVC
Формат/Информация : Advanced Video Codec
Профиль формата : [email protected]
Параметр CABAC формата : Да
Параметр ReFrames формата : 4 кадра
Идентификатор кодека : V_MPEG4/ISO/AVC
Битрейт : 14,3 Мбит/сек
Ширина : 1920 пикселей
Высота : 1036 пикселей
Соотношение сторон : 1,85:1
Режим частоты кадров : Переменный
Частота кадров в оригинале : 23,976 кадра/сек
Цветовое пространство : YUV
Субдискретизация насыщенности : 4:2:0
Битовая глубина : 8 бит
Тип развёртки : Прогрессивная
Бит/(Пиксели*Кадры) : 0.301
Библиотека кодирования : x264 core 129 r2245 bc13772
Настройки программы : cabac=1 / ref=4 / deblock=1:-3:-3 / analyse=0x3:0x113 / me=umh / subme=11 / psy=1 / psy_rd=1.00:0.09 / mixed_ref=1 / me_range=56 / chroma_me=1 / trellis=2 / 8x8dct=1 / cqm=0 / deadzone=21,11 / fast_pskip=0 / chroma_qp_offset=-3 / threads=12 / lookahead_threads=2 / sliced_threads=0 / nr=0 / decimate=1 / interlaced=0 / bluray_compat=0 / constrained_intra=0 / bframes=8 / b_pyramid=2 / b_adapt=2 / b_bias=0 / direct=3 / weightb=1 / open_gop=0 / weightp=2 / keyint=240 / keyint_min=23 / scenecut=40 / intra_refresh=0 / rc_lookahead=240 / rc=2pass / mbtree=1 / bitrate=14336 / ratetol=1.0 / qcomp=0.60 / qpmin=0 / qpmax=69 / qpstep=4 / cplxblur=20.0 / qblur=0.5 / vbv_maxrate=50000 / vbv_bufsize=50000 / nal_hrd=none / ip_ratio=1.40 / aq=1:1.00
Язык : English
Default : Да
Forced : Нет
Основные цвета : BT.709
Характеристики трансфера : BT.709
Коэффициенты матрицы : BT.709
Аудио #1
Идентификатор : 2
Формат : AC-3
Формат/Информация : Audio Coding 3
Расширение режима : CM (complete main)
Параметр Endianness формата : Big
Идентификатор кодека : A_AC3
Продолжительность : 1 ч. 56 м.
Вид битрейта : Постоянный
Битрейт : 448 Кбит/сек
Каналы : 6 каналов
Расположение каналов : Front: L C R, Side: L R, LFE
Частота : 48,0 КГц
Битовая глубина : 16 бит
Метод сжатия : С потерями
Размер потока : 373 Мбайт (3%)
Заголовок : RUS
Язык : Russian
Default : Да
Forced : Нет
Аудио #2
Идентификатор : 3
Формат : DTS
Формат/Информация : Digital Theater Systems
Идентификатор кодека : A_DTS
Продолжительность : 1 ч. 56 м.
Вид битрейта : Постоянный
Битрейт : 1510 Кбит/сек
Каналы : 6 каналов
Расположение каналов : Front: L C R, Side: L R, LFE
Частота : 48,0 КГц
Битовая глубина : 24 бит
Метод сжатия : С потерями
Размер потока : 1,23 Гбайт (9%)
Заголовок : Original
Язык : English
Default : Нет
Forced : Нет
Аудио #3
Идентификатор : 4
Формат : AC-3
Формат/Информация : Audio Coding 3
Расширение режима : CM (complete main)
Параметр Endianness формата : Big
Идентификатор кодека : A_AC3
Продолжительность : 1 ч. 56 м.
Вид битрейта : Постоянный
Битрейт : 224 Кбит/сек
Каналы : 2 канала
Расположение каналов : Front: L R
Частота : 48,0 КГц
Битовая глубина : 16 бит
Метод сжатия : С потерями
Размер потока : 187 Мбайт (1%)
Заголовок : Commentary
Язык : English
Default : Нет
Forced : Нет
Текст #1
Идентификатор : 5
Формат : UTF-8
Идентификатор кодека : S_TEXT/UTF8
Идентификатор кодека/Информация : UTF-8 Plain Text
Заголовок : RUS
Язык : Russian
Default : Нет
Forced : Нет
Текст #2
Идентификатор : 6
Формат : UTF-8
Идентификатор кодека : S_TEXT/UTF8
Идентификатор кодека/Информация : UTF-8 Plain Text
Заголовок : Original / SDH
Язык : English
Default : Нет
Forced : Нет
Меню
00:00:00.000 : en:CHAPTER01
00:04:43.366 : en:CHAPTER02
00:08:35.348 : en:CHAPTER03
00:12:48.685 : en:CHAPTER04
00:17:09.028 : en:CHAPTER05
00:22:04.198 : en:CHAPTER06
00:28:15.485 : en:CHAPTER07
00:34:08.463 : en:CHAPTER08
00:38:34.771 : en:CHAPTER09
00:41:36.452 : en:CHAPTER10
00:44:13.693 : en:CHAPTER11
00:48:46.966 : en:CHAPTER12
00:52:18.510 : en:CHAPTER13
00:58:32.926 : en:CHAPTER14
01:00:36.550 : en:CHAPTER15
01:04:33.536 : en:CHAPTER16
01:07:56.864 : en:CHAPTER17
01:12:04.445 : en:CHAPTER18
01:15:16.721 : en:CHAPTER19
01:19:06.867 : en:CHAPTER20
01:23:13.405 : en:CHAPTER21
01:27:31.121 : en:CHAPTER22
01:31:22.185 : en:CHAPTER23
01:35:52.538 : en:CHAPTER24
01:39:34.135 : en:CHAPTER25
01:44:28.012 : en:CHAPTER26
01:49:12.171 : en:CHAPTER27
01:50:18.487 : en:CHAPTER28

Скриншоты

Other forum [Profile] [PM]
Display posts from previous:    
Reply to topic

The time now is: Today 01:29

All times are GMT + 3 Hours



You cannot post new topics in this forum
You cannot reply to topics in this forum
You cannot edit your posts in this forum
You cannot delete your posts in this forum
You cannot vote in polls in this forum
You cannot attach files in this forum
You cannot download files in this forum