Today is a free download without charge Download

Дневники зомби 2: Мир мертвых / World of the Dead: The Zombie Diaries 2 (Майкл Бартлетт / Michael Bartlett, Кевин Гейтс / Kevin Gates) [2011, Великобритания, ужасы, боевик, BDRemux 1080p] DVO + VO zamez + Original Eng + Sub (Eng / Ger)

Reply to topic
 
Author
Message

Omen ®

Longevity: 8 years 5 months

Posts: 181087

Торрент-статистика

Post 03-Mar-2013 13:52

[Quote]

Дневники зомби 2: Мир мертвых / World of the Dead: The Zombie Diaries 2
«Humanity's Last Stand!»
- Страна: Великобритания
Студии: Bleeding Edge Films, Metrodome Distribution, Off World Films, Straightwire Films, The Weinstein Company LLC
Жанр: ужасы, боевик
Год выпуска: 2011
Продолжительность: 01:32:04
Перевод:
  • Любительский (двухголосый, закадровый)
  • Одноголосый закадровый RelizLab
Cубтитры: английские (SDH), немецкие
Оригинальная аудиодорожка: английский-Режиссер: Майкл Бартлетт / Michael Bartlett, Кевин Гейтс / Kevin Gates
В ролях: Филип Броди (Maddox), Аликс Вилтон Риган (Leeann), Роб Олдфилд (Jonesy), Vicky Araico (Kayne), Тоби Боуман (Nicholson), Okorie Chukwu (Carter), Расселл Джонс (Goke), Hiram Bleetman (Manny), Джош Майерс (Curtis), Маршалл Гриффин (Andrews), Тоби Николас (Billy), Руфус Грэхэм (Dr. Turner)-Описание: Несколько месяцев прошло с тех пор, как смертоносный вирус уничтожил 99,9% населения земного шара, превращая своих жертв в кровожадных живых мертвецов. В Великобритании выжившие солдаты объединяются с группой гражданских лиц для совместного выживания и укрываются в сельских военных казармах…
- -Тип релиза: BDRemux 1080p
Контейнер: MKV
Видео: MPEG-4 AVC Video / 21.5 Mbps / 1080p / 24,000 fps / 16:9 / High Profile 4.1
Аудио #1: Russian: 48 kHz, DTS, 3/2 (L,C,R,l,r) + LFE ch, ~448.00 kbps avg - [DVO]
Аудио #2: Russian: 48 kHz, DTS, 3/2 (L,C,R,l,r) + LFE ch, ~448.00 kbps avg - [VO RelizLab]
Аудио #3: English: DTS-HD Master Audio 5.1 / (48 kHz / 2166 kbps / 16-bit) (DTS Core: 5.1 / 48 kHz / 1509 kbps / 16-bit) - [Original]
Формат субтитров: softsub (SRT)
Чаптеры: Сохранены оригинальные чаптеры с Blu-Ray

 --

Скриншоты



-

MediaInfo

Код:
Format                                   : Matroska
Format version                           : Version 2
File size                                : 16.1 GiB
Duration                                 : 1h 32mn
Overall bit rate mode                    : Variable
Overall bit rate                         : 25.0 Mbps
Movie name                               : Arifis for GORESEWAGE
Encoded date                             : UTC 2013-03-02 17:21:04
Writing application                      : mkvmerge v5.2.1 ('A Far Off Place') built on Jan  2 2012 23:21:10
Writing library                          : libebml v1.2.3 + libmatroska v1.3.0
Video
ID                                       : 1
Format                                   : AVC
Format/Info                              : Advanced Video Codec
Format profile                           : [email protected]
Format settings, CABAC                   : Yes
Format settings, ReFrames                : 4 frames
Format settings, GOP                     : M=1, N=24
Codec ID                                 : V_MPEG4/ISO/AVC
Duration                                 : 1h 32mn
Bit rate mode                            : Variable
Maximum bit rate                         : 35.0 Mbps
Width                                    : 1 920 pixels
Height                                   : 1 080 pixels
Display aspect ratio                     : 16:9
Frame rate mode                          : Constant
Frame rate                               : 24.000 fps
Color space                              : YUV
Chroma subsampling                       : 4:2:0
Bit depth                                : 8 bits
Scan type                                : Progressive
Default                                  : Yes
Forced                                   : No
Audio #1
ID                                       : 2
Format                                   : AC-3
Format/Info                              : Audio Coding 3
Mode extension                           : CM (complete main)
Format settings, Endianness              : Big
Codec ID                                 : A_AC3
Duration                                 : 1h 32mn
Bit rate mode                            : Constant
Bit rate                                 : 448 Kbps
Channel(s)                               : 6 channels
Channel positions                        : Front: L C R, Side: L R, LFE
Sampling rate                            : 48.0 KHz
Bit depth                                : 16 bits
Compression mode                         : Lossy
Stream size                              : 295 MiB (2%)
Title                                    : AC3 5.1 @ 448 kbps - DVO
Language                                 : Russian
Default                                  : Yes
Forced                                   : No
Audio #2
ID                                       : 3
Format                                   : AC-3
Format/Info                              : Audio Coding 3
Mode extension                           : CM (complete main)
Format settings, Endianness              : Big
Codec ID                                 : A_AC3
Duration                                 : 1h 32mn
Bit rate mode                            : Constant
Bit rate                                 : 448 Kbps
Channel(s)                               : 6 channels
Channel positions                        : Front: L C R, Side: L R, LFE
Sampling rate                            : 48.0 KHz
Bit depth                                : 16 bits
Compression mode                         : Lossy
Stream size                              : 295 MiB (2%)
Title                                    : AC3 5.1 @ 448 kbps - VO Relizlab
Language                                 : Russian
Default                                  : No
Forced                                   : No
Audio #3
ID                                       : 4
Format                                   : DTS
Format/Info                              : Digital Theater Systems
Format profile                           : MA / Core
Mode                                     : 16
Format settings, Endianness              : Big
Codec ID                                 : A_DTS
Duration                                 : 1h 32mn
Bit rate mode                            : Variable
Bit rate                                 : Unknown / 1 509 Kbps
Channel(s)                               : 6 channels
Channel positions                        : Front: L C R, Side: L R, LFE
Sampling rate                            : 48.0 KHz
Bit depth                                : 16 bits
Compression mode                         : Lossless / Lossy
Title                                    : DTS-HD MA 5.1 Original @ 2166 kbps
Language                                 : English
Default                                  : No
Forced                                   : No
Text #1
ID                                       : 5
Format                                   : UTF-8
Codec ID                                 : S_TEXT/UTF8
Codec ID/Info                            : UTF-8 Plain Text
Title                                    : Eng SDH
Language                                 : English
Default                                  : No
Forced                                   : No
Text #2
ID                                       : 6
Format                                   : UTF-8
Codec ID                                 : S_TEXT/UTF8
Codec ID/Info                            : UTF-8 Plain Text
Title                                    : Full Ger
Language                                 : German
Default                                  : No
Forced                                   : No
Menu
00:00:00.000                             : :Chapter 01
00:06:05.666                             : :Chapter 02
00:15:39.208                             : :Chapter 03
00:23:29.916                             : :Chapter 04
00:30:02.708                             : :Chapter 05
00:41:50.083                             : :Chapter 06
00:45:52.166                             : :Chapter 07
00:55:07.250                             : :Chapter 08
01:02:28.041                             : :Chapter 09
01:09:33.708                             : :Chapter 10
01:16:36.500                             : :Chapter 11
01:23:24.291                             : :Chapter 12
-
Other forum [Profile] [PM]
Display posts from previous:    
Reply to topic

The time now is: Today 13:22

All times are GMT + 3 Hours



You cannot post new topics in this forum
You cannot reply to topics in this forum
You cannot edit your posts in this forum
You cannot delete your posts in this forum
You cannot vote in polls in this forum
You cannot attach files in this forum
You cannot download files in this forum