Today is a free download without charge Download

Смех и горе у Бела моря (Леонид Носырев) [1988, мультфильм, драма, комедия, DVB]

Reply to topic
 
Author
Message

Omen ®

Longevity: 7 years 11 months

Posts: 181087

Торрент-статистика

Post 03-Mar-2013 13:52

[Quote]

Смех и горе у Бела моря-Страна: СССР
Жанр: мультфильм, драма, комедия
Продолжительность: 00:58:50
Год выпуска: 1988
Русские субтитры: нет-Режиссёр: Леонид Носырев
Роли озвучивали: Борис Новиков, Татьяна Васильева, Клара Румянова, Евгений Леонов, Анатолий Баранцев, Мария Виноградова, Кира Смирнова, Юрий Волынцев.-Описание: Мультипликационный фильм по произведениям Бориса шергина и Степана Писахова («Не любо — не слушай», «Волшебное кольцо», «Архангельские новеллы», «Поморская быль» и др.).
В фильм вошли:
1. Вечны льдины
2. Про медведя
3. Морожены песни
4. Волшебное кольцо
5. Перепилиха
6. Апельсин
7. Иван и Адриан-Качество: DVB
Формат: TS
Видео: 720x576 (4:3), 25.000 fps, AVC, ~3558 Kbps, 0.343 bits/pixel
Аудио: 48.0 KHz, MPEG-1 Audio layer 2, 2 ch, 256 Kbps
Субтитры: отсутствуют

Подробные технические данные

GeneralID : 1 (0x1)Complete name : Смех и горе у Бела моря.1988.CTC 0.tsFormat : MPEG-TSFile size : 1.65 GiBDuration : 58mn 50sOverall bit rate mode : VariableOverall bit rate : 4 015 Kbps
VideoID : 1801 (0x709)Menu ID : 1 (0x1)Format : AVCFormat/Info : Advanced Video CodecFormat profile : [email protected] settings, CABAC : YesFormat settings, ReFrames : 3 framesFormat settings, GOP : M=4, N=28Codec ID : 27Duration : 58mn 50sBit rate : 3 558 KbpsWidth : 720 pixelsHeight : 576 pixelsDisplay aspect ratio : 4:3Frame rate : 25.000 fpsStandard : ComponentColor space : YUVChroma subsampling : 4:2:0Bit depth : 8 bitsScan type : InterlacedScan order : Top Field FirstBits/(Pixel*Frame) : 0.343Stream size : 1.46 GiB (89%)Color primaries : BT.601 PALTransfer characteristics : BT.470 System B, BT.470 System GMatrix coefficients : BT.601
AudioID : 2801 (0xAF1)Menu ID : 1 (0x1)Format : MPEG AudioFormat version : Version 1Format profile : Layer 2Codec ID : 3Duration : 58mn 49sBit rate mode : ConstantBit rate : 256 KbpsChannel(s) : 2 channelsSampling rate : 48.0 KHzCompression mode : LossyStream size : 108 MiB (6%)
Other forum [Profile] [PM]
Display posts from previous:    
Reply to topic

The time now is: Today 18:38

All times are GMT + 3 Hours



You cannot post new topics in this forum
You cannot reply to topics in this forum
You cannot edit your posts in this forum
You cannot delete your posts in this forum
You cannot vote in polls in this forum
You cannot attach files in this forum
You cannot download files in this forum