Today is a free download without charge Download

Идентификация / Identity (Джеймс Мэнголд / James Mangold) [ 2003 , США , триллер, детектив , BDRip 1080p ]

Reply to topic
 
Author
Message

Delia ®

Gender:

Longevity: 11 years

Posts: 1821

Торрент-статистика

Post 03-Mar-2013 08:55

[Quote]

ИдентификацияIdentity«Identity is a secret. Identity is a mystery. Identity is a killer.»- Страна: США
Жанр: триллер, детектив
Год выпуска: 2003
Продолжительность: 01:30:02-Перевод: Профессиональный (многоголосый, закадровый)
Субтитры: русские,английские
Режиссер: Джеймс Мэнголд / James Mangold В ролях: Джон Кьюсак (Ed), Рэй Лиотта (Rhodes), Аманда Пит (Paris), Джон Хоукс (Larry), Альфред Молина (Dr. Malick), Клеа Дюваль (Ginny), Джон К. МакГинли (George York), Уильям Ли Скотт (Lou), Джейк Бьюзи (Robert Maine), Прюитт Тэйлор Винс (Malcolm Rivers), Ребекка Де Морнэй (Caroline Suzanne), Кармен Ардженциано (Defense Lawyer)-Описание: Бушует жуткий ливень. В поисках укрытия десять путешественников вынуждены остановиться на ночь в старом придорожном мотеле. Однако вскоре они с ужасом обнаруживают, что это место становится не спасительным укрытием, а смертельной мышеловкой.
Люди гибнут один за другим, а убийца, скрывающийся среди них, по-прежнему не вычислен. С каждым новым трупом оставшимся в живых становится все очевиднее, что их всех вместе собрала далеко не судьба, а чья-то дьявольски изощренная воля, творящая собственное правосудие...-
MPAA: R - Лицам до 17 лет обязательно присутствие взрослого-Качество: BDRip1080p (CtrlHD)
Контейнер: MKV
Видео: AVC, 1920x796 (2.40:1), 10962 kbps, 23,976 fps, 0,299 bpp
Аудио №1: русский / AC3 / 5.1 / 48 kHz / 640 kbps / 16 bit |BD CEE|
Аудио №2: русский / AC3 / 2.0 / 48 kHz / 192 kbps / 16 bit |1 канал|
Аудио №3: английский / AC3 / 5.1 / 48 kHz / 384 kbps / 16 bit- -

Media Info

Код:
General
Unique ID                                : 179166148535203813293364439211285076966 (0x86CA2521E524A1E2A950045B3D72DBE6)
Complete name                            : E:\Torrent\Identity.2003.1080p ..mkv
Format                                   : Matroska
Format version                           : Version 4 / Version 2
File size                                : 7.66 GiB
Duration                                 : 1h 30mn
Overall bit rate                         : 12.2 Mbps
Movie name                               : Identity (2003)
Encoded date                             : UTC 2013-03-02 22:07:36
Writing application                      : mkvmerge v6.0.0 ('Coming Up For Air') built on Jan 20 2013 09:52:00
Writing library                          : libebml v1.3.0 + libmatroska v1.4.0
Attachment                               : Yes
Video
ID                                       : 1
Format                                   : AVC
Format/Info                              : Advanced Video Codec
Format profile                           : [email protected]
Format settings, CABAC                   : Yes
Format settings, ReFrames                : 5 frames
Codec ID                                 : V_MPEG4/ISO/AVC
Duration                                 : 1h 30mn
Bit rate                                 : 11.0 Mbps
Width                                    : 1 920 pixels
Height                                   : 796 pixels
Display aspect ratio                     : 2.40:1
Frame rate                               : 23.976 fps
Color space                              : YUV
Chroma subsampling                       : 4:2:0
Bit depth                                : 8 bits
Scan type                                : Progressive
Bits/(Pixel*Frame)                       : 0.299
Stream size                              : 6.74 GiB (88%)
Title                                    : Identity (2003)
Writing library                          : x264 core 65 r1074M b6bb3d4
Encoding settings                        : cabac=1 / ref=5 / deblock=1:-3:-3 / analyse=0x3:0x113 / me=umh / subme=9 / psy_rd=1.3:0.0 / mixed_ref=1 / me_range=24 / chroma_me=1 / trellis=2 / 8x8dct=1 / cqm=0 / deadzone=21,11 / chroma_qp_offset=-2 / threads=8 / nr=0 / decimate=1 / mbaff=0 / bframes=6 / b_pyramid=1 / b_adapt=2 / b_bias=0 / direct=3 / wpredb=1 / keyint=250 / keyint_min=25 / scenecut=40(pre) / rc=2pass / bitrate=10962 / ratetol=1.0 / qcomp=0.60 / qpmin=10 / qpmax=51 / qpstep=4 / cplxblur=20.0 / qblur=0.5 / ip_ratio=1.40 / pb_ratio=1.30 / aq=1:0.75
Language                                 : English
Default                                  : Yes
Forced                                   : No
Audio #1
ID                                       : 2
Format                                   : AC-3
Format/Info                              : Audio Coding 3
Mode extension                           : CM (complete main)
Codec ID                                 : A_AC3
Duration                                 : 1h 30mn
Bit rate mode                            : Constant
Bit rate                                 : 640 Kbps
Channel(s)                               : 6 channels
Channel positions                        : Front: L C R, Side: L R, LFE
Sampling rate                            : 48.0 KHz
Bit depth                                : 16 bits
Compression mode                         : Lossy
Stream size                              : 412 MiB (5%)
Title                                    : Многоголосый BD CEE 640kbps
Language                                 : Russian
Default                                  : Yes
Forced                                   : No
Audio #2
ID                                       : 3
Format                                   : AC-3
Format/Info                              : Audio Coding 3
Mode extension                           : CM (complete main)
Codec ID                                 : A_AC3
Duration                                 : 1h 30mn
Bit rate mode                            : Constant
Bit rate                                 : 192 Kbps
Channel(s)                               : 2 channels
Channel positions                        : Front: L R
Sampling rate                            : 48.0 KHz
Bit depth                                : 16 bits
Compression mode                         : Lossy
Stream size                              : 124 MiB (2%)
Title                                    : 1 канал
Language                                 : Russian
Default                                  : No
Forced                                   : No
Audio #3
ID                                       : 4
Format                                   : AC-3
Format/Info                              : Audio Coding 3
Mode extension                           : CM (complete main)
Codec ID                                 : A_AC3
Duration                                 : 1h 30mn
Bit rate mode                            : Constant
Bit rate                                 : 384 Kbps
Channel(s)                               : 6 channels
Channel positions                        : Front: L C R, Side: L R, LFE
Sampling rate                            : 48.0 KHz
Bit depth                                : 16 bits
Compression mode                         : Lossy
Stream size                              : 247 MiB (3%)
Language                                 : English
Default                                  : No
Forced                                   : No
Text #1
ID                                       : 5
Format                                   : UTF-8
Codec ID                                 : S_TEXT/UTF8
Codec ID/Info                            : UTF-8 Plain Text
Language                                 : Russian
Default                                  : No
Forced                                   : No
Text #2
ID                                       : 6
Format                                   : UTF-8
Codec ID                                 : S_TEXT/UTF8
Codec ID/Info                            : UTF-8 Plain Text
Language                                 : English
Default                                  : No
Forced                                   : No

Скриншоты

     
     

_________________
Человек – это канат, натянутый между животным и сверхчеловеком, – канат над пропастью.
В человеке ценно то, что он мост, а не цель. Фридрих Ницше
Other forum [Profile] [PM]
Display posts from previous:    
Reply to topic

The time now is: Today 19:18

All times are GMT + 3 Hours



You cannot post new topics in this forum
You cannot reply to topics in this forum
You cannot edit your posts in this forum
You cannot delete your posts in this forum
You cannot vote in polls in this forum
You cannot attach files in this forum
You cannot download files in this forum