Today is a free download without charge Download

Соната Арктика - Вживую в Финляндии / Sonata Arctica - Live In Finland (2011) Blu-Ray [1080p]

Reply to topic
 
Author
Message

Varius ®

Gender:

Longevity: 9 years 5 months

Posts: 2408

Location: Hell

Торрент-статистика

Post 03-Mar-2013 08:42

[Quote]

Sonata Arctica - Live In Finland (2011) Blu-Ray- Русское название: Соната Арктика - Вживую в Финляндии
Оригинальное название: Sonata Arctica - Live In Finland
Год выпуска: 2011
Качество видео: Blu-Ray
Жанр: Power Metal
Страна: Финляндия
Продолжительность: 1:41:47 (основной концерт) + 02:50:54 (доп.материалы)
Описание: 9 сентября 2011 года, ровно в полночь финские пауэр-металлисты группы Sonata Arctica раскрыли обложку своего нового концертника, а также трек-лист. Основное шоу было записано 15 апреля 2011 года в клубе Театриа в городе Оулу, Финляндия. Релиз также включает в себя материал с Open Air Festival, состоявшегося в августе 2009 года, в родном городе группы Кеми, а также документальные фильмы, музыкальные клипы и фотогаллереи. Как и в прошлый раз, группа снова записала трек с комментариями для основного шоу на финском языке.
Качество: Blu-ray
Контейнер: BDMV
Видео кодек: H.264
Аудио кодек: PCM
Видео: H.264, 1920*1080, 16:9, 20.7 Mbps, 24 fps
Аудио #1: PCM, 1536 kbps, 48 kHz, 2 ch
Аудио #2: PCM, 4608 kbps, 48 kHz, 6 ch
Аудио #3: PCM, 1536 kbps, 48 kHz, 2 ch (комментарии группы)
Треклист:
01. Intro (Everything Fades To Gray)
02. Flag In The Ground
03. The Last Amazing Grays
04. Juliet
05. Replica
06. Blank File
07. As If The World Wasn't Ending
08. Paid In Full
09. Victoria's Secret
10. Instrumental Exhibition
11. The Misery
12. Fullmoon
13. In Black & White
14. Mary-Lou
15. Shy
16. Letter To Dana
17. Caleb
18. Don't Say A Word
19. Outro & Credits
Доп.информация
Часть дополнительного материала по качеству изображения практически идентична этому же материалу, представленному на DVD версии концерта.

BDInfo

Disc Title: Sonata Arctica_Live In Finland (2011)
Disc Size: 47 680 729 506 bytes
Protection: AACS
BD-Java: Yes
BDInfo: 0.5.8
Notes:
BDINFO HOME:
Cinema Squid
http://www.cinemasquid.com/blu-ray/tools/bdinfo
INCLUDES FORUMS REPORT FOR:
AVS Forum Blu-ray Audio and Video Specifications Thread
http://www.avsforum.com/avs-vb/showthread.php?t=1155731
********************
PLAYLIST: 00001.MPLS
********************
Код:
Total Video
Title Codec Length Movie Size Disc Size Bitrate Bitrate Main Audio Track Secondary Audio Track
----- ------ ------- -------------- -------------- ------- ------- ------------------ ---------------------
00001.MPLS AVC 0:00:44 127 641 600 47 680 729 506 22,73 19,93 LPCM 2.0 1536Kbps (48kHz/16-bit)
Код:
DISC INFO:
Disc Title: Sonata Arctica_Live In Finland (2011)
Disc Size: 47 680 729 506 bytes
Protection: AACS
BD-Java: Yes
BDInfo: 0.5.8
PLAYLIST REPORT:
Name: 00001.MPLS
Length: 0:00:44.916 (h:m:s.ms)
Size: 127 641 600 bytes
Total Bitrate: 22,73 Mbps
VIDEO:
Codec Bitrate Description
----- ------- -----------
MPEG-4 AVC Video 19933 kbps 1080p / 24 fps / 16:9 / High Profile 4.1
AUDIO:
Codec Language Bitrate Description
----- -------- ------- -----------
LPCM Audio Undetermined 1536 kbps 2.0 / 48 kHz / 1536 kbps / 16-bit
FILES:
Name Time In Length Size Total Bitrate
---- ------- ------ ---- -------------
00001.M2TS 0:00:00.000 0:00:44.916 127 641 600 22 734
CHAPTERS:
Number Time In Length Avg Video Rate Max 1-Sec Rate Max 1-Sec Time Max 5-Sec Rate Max 5-Sec Time Max 10Sec Rate Max 10Sec Time Avg Frame Size Max Frame Size Max Frame Time
------ ------- ------ -------------- -------------- -------------- -------------- -------------- -------------- -------------- -------------- -------------- --------------
1 0:00:00.000 0:00:44.916 19 933 kbps 42 049 kbps 00:00:34.000 32 830 kbps 00:00:33.041 26 729 kbps 00:00:27.041 103 817 bytes 537 278 bytes 00:00:06.000
STREAM DIAGNOSTICS:
File PID Type Codec Language Seconds Bitrate Bytes Packets
---- --- ---- ----- -------- -------------- -------------- ------------- -----
00001.M2TS 4113 (0x1011) 0x1B AVC 44,792 19 989 111 915 253 608 863
00001.M2TS 4352 (0x1100) 0x80 LPCM und (Undetermined) 44,792 1 547 8 660 576 53 904
QUICK SUMMARY:
Disc Title: Sonata Arctica_Live In Finland (2011)
Disc Size: 47 680 729 506 bytes
Protection: AACS
BD-Java: Yes
Playlist: 00001.MPLS
Size: 127 641 600 bytes
Length: 0:00:44.916
Total Bitrate: 22,73 Mbps
Video: MPEG-4 AVC Video / 19933 kbps / 1080p / 24 fps / 16:9 / High Profile 4.1
Audio: Undetermined / LPCM Audio / 2.0 / 48 kHz / 1536 kbps / 16-bit
********************
PLAYLIST: 00002.MPLS
********************
Код:
Total Video
Title Codec Length Movie Size Disc Size Bitrate Bitrate Main Audio Track Secondary Audio Track
----- ------ ------- -------------- -------------- ------- ------- ------------------ ---------------------
00002.MPLS AVC 0:00:28 78 151 680 47 680 729 506 22,13 19,35 LPCM 2.0 1536Kbps (48kHz/16-bit)
Код:
DISC INFO:
Disc Title: Sonata Arctica_Live In Finland (2011)
Disc Size: 47 680 729 506 bytes
Protection: AACS
BD-Java: Yes
BDInfo: 0.5.8
PLAYLIST REPORT:
Name: 00002.MPLS
Length: 0:00:28.250 (h:m:s.ms)
Size: 78 151 680 bytes
Total Bitrate: 22,13 Mbps
VIDEO:
Codec Bitrate Description
----- ------- -----------
MPEG-4 AVC Video 19354 kbps 1080p / 24 fps / 16:9 / High Profile 4.1
AUDIO:
Codec Language Bitrate Description
----- -------- ------- -----------
LPCM Audio Undetermined 1536 kbps 2.0 / 48 kHz / 1536 kbps / 16-bit
FILES:
Name Time In Length Size Total Bitrate
---- ------- ------ ---- -------------
00002.M2TS 0:00:00.000 0:00:28.250 78 151 680 22 131
CHAPTERS:
Number Time In Length Avg Video Rate Max 1-Sec Rate Max 1-Sec Time Max 5-Sec Rate Max 5-Sec Time Max 10Sec Rate Max 10Sec Time Avg Frame Size Max Frame Size Max Frame Time
------ ------- ------ -------------- -------------- -------------- -------------- -------------- -------------- -------------- -------------- -------------- --------------
1 0:00:00.000 0:00:28.250 19 354 kbps 41 494 kbps 00:00:15.791 35 407 kbps 00:00:14.500 29 964 kbps 00:00:12.291 100 801 bytes 462 786 bytes 00:00:27.833
STREAM DIAGNOSTICS:
File PID Type Codec Language Seconds Bitrate Bytes Packets
---- --- ---- ----- -------- -------------- -------------- ------------- -----
00002.M2TS 4113 (0x1011) 0x1B AVC 28,083 19 469 68 342 866 371 837
00002.M2TS 4352 (0x1100) 0x80 LPCM und (Undetermined) 28,083 1 552 5 446 600 33 900
QUICK SUMMARY:
Disc Title: Sonata Arctica_Live In Finland (2011)
Disc Size: 47 680 729 506 bytes
Protection: AACS
BD-Java: Yes
Playlist: 00002.MPLS
Size: 78 151 680 bytes
Length: 0:00:28.250
Total Bitrate: 22,13 Mbps
Video: MPEG-4 AVC Video / 19354 kbps / 1080p / 24 fps / 16:9 / High Profile 4.1
Audio: Undetermined / LPCM Audio / 2.0 / 48 kHz / 1536 kbps / 16-bit
********************
PLAYLIST: 00003.MPLS
********************
Код:
Total Video
Title Codec Length Movie Size Disc Size Bitrate Bitrate Main Audio Track Secondary Audio Track
----- ------ ------- -------------- -------------- ------- ------- ------------------ ---------------------
00003.MPLS AVC 0:01:20 230 111 232 47 680 729 506 22,79 19,98 LPCM 2.0 1536Kbps (48kHz/16-bit)
Код:
DISC INFO:
Disc Title: Sonata Arctica_Live In Finland (2011)
Disc Size: 47 680 729 506 bytes
Protection: AACS
BD-Java: Yes
BDInfo: 0.5.8
PLAYLIST REPORT:
Name: 00003.MPLS
Length: 0:01:20.791 (h:m:s.ms)
Size: 230 111 232 bytes
Total Bitrate: 22,79 Mbps
VIDEO:
Codec Bitrate Description
----- ------- -----------
MPEG-4 AVC Video 19983 kbps 1080p / 24 fps / 16:9 / High Profile 4.1
AUDIO:
Codec Language Bitrate Description
----- -------- ------- -----------
LPCM Audio Undetermined 1536 kbps 2.0 / 48 kHz / 1536 kbps / 16-bit
FILES:
Name Time In Length Size Total Bitrate
---- ------- ------ ---- -------------
00003.M2TS 0:00:00.000 0:01:20.791 230 111 232 22 786
CHAPTERS:
Number Time In Length Avg Video Rate Max 1-Sec Rate Max 1-Sec Time Max 5-Sec Rate Max 5-Sec Time Max 10Sec Rate Max 10Sec Time Avg Frame Size Max Frame Size Max Frame Time
------ ------- ------ -------------- -------------- -------------- -------------- -------------- -------------- -------------- -------------- -------------- --------------
1 0:00:00.000 0:01:20.791 19 983 kbps 29 578 kbps 00:00:24.458 24 673 kbps 00:00:21.000 22 273 kbps 00:00:16.958 104 079 bytes 402 143 bytes 00:01:06.000
STREAM DIAGNOSTICS:
File PID Type Codec Language Seconds Bitrate Bytes Packets
---- --- ---- ----- -------- -------------- -------------- ------------- -----
00003.M2TS 4113 (0x1011) 0x1B AVC 80,625 20 024 201 808 360 1 097 920
00003.M2TS 4352 (0x1100) 0x80 LPCM und (Undetermined) 80,625 1 546 15 577 276 96 954
QUICK SUMMARY:
Disc Title: Sonata Arctica_Live In Finland (2011)
Disc Size: 47 680 729 506 bytes
Protection: AACS
BD-Java: Yes
Playlist: 00003.MPLS
Size: 230 111 232 bytes
Length: 0:01:20.791
Total Bitrate: 22,79 Mbps
Video: MPEG-4 AVC Video / 19983 kbps / 1080p / 24 fps / 16:9 / High Profile 4.1
Audio: Undetermined / LPCM Audio / 2.0 / 48 kHz / 1536 kbps / 16-bit
********************
PLAYLIST: 00004.MPLS
********************
Код:
Total Video
Title Codec Length Movie Size Disc Size Bitrate Bitrate Main Audio Track Secondary Audio Track
----- ------ ------- -------------- -------------- ------- ------- ------------------ ---------------------
00004.MPLS AVC 1:41:47 22 567 028 736 47 680 729 506 29,56 20,00 LPCM 2.0 1536Kbps (48kHz/16-bit) LPCM 2.0 1536Kbps (48kHz/16-bit)
Код:
DISC INFO:
Disc Title: Sonata Arctica_Live In Finland (2011)
Disc Size: 47 680 729 506 bytes
Protection: AACS
BD-Java: Yes
BDInfo: 0.5.8
PLAYLIST REPORT:
Name: 00004.MPLS
Length: 1:41:47.250 (h:m:s.ms)
Size: 22 567 028 736 bytes
Total Bitrate: 29,56 Mbps
VIDEO:
Codec Bitrate Description
----- ------- -----------
MPEG-4 AVC Video 20000 kbps 1080p / 24 fps / 16:9 / High Profile 4.1
AUDIO:
Codec Language Bitrate Description
----- -------- ------- -----------
LPCM Audio Undetermined 1536 kbps 2.0 / 48 kHz / 1536 kbps / 16-bit
LPCM Audio Undetermined 1536 kbps 2.0 / 48 kHz / 1536 kbps / 16-bit
LPCM Audio Undetermined 4608 kbps 5.1 / 48 kHz / 4608 kbps / 16-bit
FILES:
Name Time In Length Size Total Bitrate
---- ------- ------ ---- -------------
00004.M2TS 0:00:00.000 1:41:47.250 22 567 028 736 29 561
CHAPTERS:
Number Time In Length Avg Video Rate Max 1-Sec Rate Max 1-Sec Time Max 5-Sec Rate Max 5-Sec Time Max 10Sec Rate Max 10Sec Time Avg Frame Size Max Frame Size Max Frame Time
------ ------- ------ -------------- -------------- -------------- -------------- -------------- -------------- -------------- -------------- -------------- --------------
1 0:00:00.000 1:41:47.250 20 000 kbps 44 856 kbps 01:23:45.916 34 534 kbps 00:18:09.416 32 135 kbps 01:32:14.249 104 166 bytes 437 056 bytes 01:22:30.083
STREAM DIAGNOSTICS:
File PID Type Codec Language Seconds Bitrate Bytes Packets
---- --- ---- ----- -------- -------------- -------------- ------------- -----
00004.M2TS 4113 (0x1011) 0x1B AVC 6107,125 20 000 15 268 062 092 83 064 621
00004.M2TS 4352 (0x1100) 0x80 LPCM und (Undetermined) 6107,125 1 542 1 177 477 800 7 328 700
00004.M2TS 4353 (0x1101) 0x80 LPCM und (Undetermined) 6107,125 1 542 1 177 477 800 7 328 700
00004.M2TS 4354 (0x1102) 0x80 LPCM und (Undetermined) 6107,125 4 614 3 522 661 616 19 543 199
QUICK SUMMARY:
Disc Title: Sonata Arctica_Live In Finland (2011)
Disc Size: 47 680 729 506 bytes
Protection: AACS
BD-Java: Yes
Playlist: 00004.MPLS
Size: 22 567 028 736 bytes
Length: 1:41:47.250
Total Bitrate: 29,56 Mbps
Video: MPEG-4 AVC Video / 20000 kbps / 1080p / 24 fps / 16:9 / High Profile 4.1
Audio: Undetermined / LPCM Audio / 2.0 / 48 kHz / 1536 kbps / 16-bit
Audio: Undetermined / LPCM Audio / 2.0 / 48 kHz / 1536 kbps / 16-bit
Audio: Undetermined / LPCM Audio / 5.1 / 48 kHz / 4608 kbps / 16-bit
********************
PLAYLIST: 00005.MPLS
********************
Код:
Total Video
Title Codec Length Movie Size Disc Size Bitrate Bitrate Main Audio Track Secondary Audio Track
----- ------ ------- -------------- -------------- ------- ------- ------------------ ---------------------
00005.MPLS AVC 0:28:15 4 389 672 960 47 680 729 506 20,72 18,00 LPCM 2.0 1536Kbps (48kHz/16-bit)
Код:
DISC INFO:
Disc Title: Sonata Arctica_Live In Finland (2011)
Disc Size: 47 680 729 506 bytes
Protection: AACS
BD-Java: Yes
BDInfo: 0.5.8
PLAYLIST REPORT:
Name: 00005.MPLS
Length: 0:28:15.250 (h:m:s.ms)
Size: 4 389 672 960 bytes
Total Bitrate: 20,72 Mbps
VIDEO:
Codec Bitrate Description
----- ------- -----------
MPEG-4 AVC Video 17999 kbps 1080p / 24 fps / 16:9 / High Profile 4.1
AUDIO:
Codec Language Bitrate Description
----- -------- ------- -----------
LPCM Audio Undetermined 1536 kbps 2.0 / 48 kHz / 1536 kbps / 16-bit
FILES:
Name Time In Length Size Total Bitrate
---- ------- ------ ---- -------------
00005.M2TS 0:00:00.000 0:28:15.250 4 389 672 960 20 715
CHAPTERS:
Number Time In Length Avg Video Rate Max 1-Sec Rate Max 1-Sec Time Max 5-Sec Rate Max 5-Sec Time Max 10Sec Rate Max 10Sec Time Avg Frame Size Max Frame Size Max Frame Time
------ ------- ------ -------------- -------------- -------------- -------------- -------------- -------------- -------------- -------------- -------------- --------------
1 0:00:00.000 0:28:15.250 17 999 kbps 42 711 kbps 00:16:27.166 30 155 kbps 00:07:39.958 29 430 kbps 00:16:27.208 93 747 bytes 397 250 bytes 00:23:39.708
STREAM DIAGNOSTICS:
File PID Type Codec Language Seconds Bitrate Bytes Packets
---- --- ---- ----- -------- -------------- -------------- ------------- -----
00005.M2TS 4113 (0x1011) 0x1B AVC 1695,167 18 000 3 814 176 288 20 753 230
00005.M2TS 4352 (0x1100) 0x80 LPCM und (Undetermined) 1695,167 1 542 326 843 236 2 034 299
QUICK SUMMARY:
Disc Title: Sonata Arctica_Live In Finland (2011)
Disc Size: 47 680 729 506 bytes
Protection: AACS
BD-Java: Yes
Playlist: 00005.MPLS
Size: 4 389 672 960 bytes
Length: 0:28:15.250
Total Bitrate: 20,72 Mbps
Video: MPEG-4 AVC Video / 17999 kbps / 1080p / 24 fps / 16:9 / High Profile 4.1
Audio: Undetermined / LPCM Audio / 2.0 / 48 kHz / 1536 kbps / 16-bit
********************
PLAYLIST: 00006.MPLS
********************
Код:
Total Video
Title Codec Length Movie Size Disc Size Bitrate Bitrate Main Audio Track Secondary Audio Track
----- ------ ------- -------------- -------------- ------- ------- ------------------ ---------------------
00006.MPLS AVC 0:16:07 2 103 545 856 47 680 729 506 17,40 14,82 LPCM 2.0 1536Kbps (48kHz/16-bit)
Код:
DISC INFO:
Disc Title: Sonata Arctica_Live In Finland (2011)
Disc Size: 47 680 729 506 bytes
Protection: AACS
BD-Java: Yes
BDInfo: 0.5.8
PLAYLIST REPORT:
Name: 00006.MPLS
Length: 0:16:07.250 (h:m:s.ms)
Size: 2 103 545 856 bytes
Total Bitrate: 17,40 Mbps
VIDEO:
Codec Bitrate Description
----- ------- -----------
MPEG-4 AVC Video 14821 kbps 1080p / 24 fps / 16:9 / High Profile 4.1
AUDIO:
Codec Language Bitrate Description
----- -------- ------- -----------
LPCM Audio Undetermined 1536 kbps 2.0 / 48 kHz / 1536 kbps / 16-bit
FILES:
Name Time In Length Size Total Bitrate
---- ------- ------ ---- -------------
00006.M2TS 0:00:00.000 0:16:07.250 2 103 545 856 17 398
CHAPTERS:
Number Time In Length Avg Video Rate Max 1-Sec Rate Max 1-Sec Time Max 5-Sec Rate Max 5-Sec Time Max 10Sec Rate Max 10Sec Time Avg Frame Size Max Frame Size Max Frame Time
------ ------- ------ -------------- -------------- -------------- -------------- -------------- -------------- -------------- -------------- -------------- --------------
1 0:00:00.000 0:16:07.250 14 821 kbps 26 531 kbps 00:15:58.000 24 458 kbps 00:15:55.208 21 718 kbps 00:15:53.500 77 191 bytes 284 721 bytes 00:06:55.500
STREAM DIAGNOSTICS:
File PID Type Codec Language Seconds Bitrate Bytes Packets
---- --- ---- ----- -------- -------------- -------------- ------------- -----
00006.M2TS 4113 (0x1011) 0x1B AVC 967,083 14 823 1 791 914 145 9 752 262
00006.M2TS 4352 (0x1100) 0x80 LPCM und (Undetermined) 967,083 1 543 186 485 800 1 160 700
QUICK SUMMARY:
Disc Title: Sonata Arctica_Live In Finland (2011)
Disc Size: 47 680 729 506 bytes
Protection: AACS
BD-Java: Yes
Playlist: 00006.MPLS
Size: 2 103 545 856 bytes
Length: 0:16:07.250
Total Bitrate: 17,40 Mbps
Video: MPEG-4 AVC Video / 14821 kbps / 1080p / 24 fps / 16:9 / High Profile 4.1
Audio: Undetermined / LPCM Audio / 2.0 / 48 kHz / 1536 kbps / 16-bit
********************
PLAYLIST: 00007.MPLS
********************
Код:
Total Video
Title Codec Length Movie Size Disc Size Bitrate Bitrate Main Audio Track Secondary Audio Track
----- ------ ------- -------------- -------------- ------- ------- ------------------ ---------------------
00007.MPLS AVC 0:13:13 2 054 037 504 47 680 729 506 20,71 18,00 LPCM 2.0 1536Kbps (48kHz/16-bit)
Код:
DISC INFO:
Disc Title: Sonata Arctica_Live In Finland (2011)
Disc Size: 47 680 729 506 bytes
Protection: AACS
BD-Java: Yes
BDInfo: 0.5.8
PLAYLIST REPORT:
Name: 00007.MPLS
Length: 0:13:13.291 (h:m:s.ms)
Size: 2 054 037 504 bytes
Total Bitrate: 20,71 Mbps
VIDEO:
Codec Bitrate Description
----- ------- -----------
MPEG-4 AVC Video 17998 kbps 1080p / 24 fps / 16:9 / High Profile 4.1
AUDIO:
Codec Language Bitrate Description
----- -------- ------- -----------
LPCM Audio Undetermined 1536 kbps 2.0 / 48 kHz / 1536 kbps / 16-bit
FILES:
Name Time In Length Size Total Bitrate
---- ------- ------ ---- -------------
00007.M2TS 0:00:00.000 0:13:13.291 2 054 037 504 20 714
CHAPTERS:
Number Time In Length Avg Video Rate Max 1-Sec Rate Max 1-Sec Time Max 5-Sec Rate Max 5-Sec Time Max 10Sec Rate Max 10Sec Time Avg Frame Size Max Frame Size Max Frame Time
------ ------- ------ -------------- -------------- -------------- -------------- -------------- -------------- -------------- -------------- -------------- --------------
1 0:00:00.000 0:13:13.291 17 998 kbps 38 187 kbps 00:07:45.999 33 218 kbps 00:07:44.208 30 773 kbps 00:07:38.499 93 741 bytes 463 432 bytes 00:06:21.625
STREAM DIAGNOSTICS:
File PID Type Codec Language Seconds Bitrate Bytes Packets
---- --- ---- ----- -------- -------------- -------------- ------------- -----
00007.M2TS 4113 (0x1011) 0x1B AVC 793,208 18 000 1 784 743 234 9 710 880
00007.M2TS 4352 (0x1100) 0x80 LPCM und (Undetermined) 793,208 1 543 152 947 276 951 954
QUICK SUMMARY:
Disc Title: Sonata Arctica_Live In Finland (2011)
Disc Size: 47 680 729 506 bytes
Protection: AACS
BD-Java: Yes
Playlist: 00007.MPLS
Size: 2 054 037 504 bytes
Length: 0:13:13.291
Total Bitrate: 20,71 Mbps
Video: MPEG-4 AVC Video / 17998 kbps / 1080p / 24 fps / 16:9 / High Profile 4.1
Audio: Undetermined / LPCM Audio / 2.0 / 48 kHz / 1536 kbps / 16-bit
********************
PLAYLIST: 00008.MPLS
********************
Код:
Total Video
Title Codec Length Movie Size Disc Size Bitrate Bitrate Main Audio Track Secondary Audio Track
----- ------ ------- -------------- -------------- ------- ------- ------------------ ---------------------
00008.MPLS AVC 0:03:34 434 288 640 47 680 729 506 16,20 13,67 LPCM 2.0 1536Kbps (48kHz/16-bit)
Код:
DISC INFO:
Disc Title: Sonata Arctica_Live In Finland (2011)
Disc Size: 47 680 729 506 bytes
Protection: AACS
BD-Java: Yes
BDInfo: 0.5.8
PLAYLIST REPORT:
Name: 00008.MPLS
Length: 0:03:34.458 (h:m:s.ms)
Size: 434 288 640 bytes
Total Bitrate: 16,20 Mbps
VIDEO:
Codec Bitrate Description
----- ------- -----------
MPEG-4 AVC Video 13673 kbps 1080p / 24 fps / 16:9 / High Profile 4.1
AUDIO:
Codec Language Bitrate Description
----- -------- ------- -----------
LPCM Audio Undetermined 1536 kbps 2.0 / 48 kHz / 1536 kbps / 16-bit
FILES:
Name Time In Length Size Total Bitrate
---- ------- ------ ---- -------------
00008.M2TS 0:00:00.000 0:03:34.458 434 288 640 16 200
CHAPTERS:
Number Time In Length Avg Video Rate Max 1-Sec Rate Max 1-Sec Time Max 5-Sec Rate Max 5-Sec Time Max 10Sec Rate Max 10Sec Time Avg Frame Size Max Frame Size Max Frame Time
------ ------- ------ -------------- -------------- -------------- -------------- -------------- -------------- -------------- -------------- -------------- --------------
1 0:00:00.000 0:03:34.458 13 673 kbps 26 983 kbps 00:00:30.249 21 007 kbps 00:02:34.708 18 683 kbps 00:02:34.708 71 213 bytes 342 544 bytes 00:00:49.250
STREAM DIAGNOSTICS:
File PID Type Codec Language Seconds Bitrate Bytes Packets
---- --- ---- ----- -------- -------------- -------------- ------------- -----
00008.M2TS 4113 (0x1011) 0x1B AVC 214,375 13 678 366 533 724 1 994 992
00008.M2TS 4352 (0x1100) 0x80 LPCM und (Undetermined) 214,375 1 543 41 347 888 257 352
QUICK SUMMARY:
Disc Title: Sonata Arctica_Live In Finland (2011)
Disc Size: 47 680 729 506 bytes
Protection: AACS
BD-Java: Yes
Playlist: 00008.MPLS
Size: 434 288 640 bytes
Length: 0:03:34.458
Total Bitrate: 16,20 Mbps
Video: MPEG-4 AVC Video / 13673 kbps / 1080p / 24 fps / 16:9 / High Profile 4.1
Audio: Undetermined / LPCM Audio / 2.0 / 48 kHz / 1536 kbps / 16-bit
********************
PLAYLIST: 00009.MPLS
********************
Код:
Total Video
Title Codec Length Movie Size Disc Size Bitrate Bitrate Main Audio Track Secondary Audio Track
----- ------ ------- -------------- -------------- ------- ------- ------------------ ---------------------
00009.MPLS AVC 0:56:46 7 990 585 344 47 680 729 506 18,76 16,13 LPCM 2.0 1536Kbps (48kHz/16-bit)
Код:
DISC INFO:
Disc Title: Sonata Arctica_Live In Finland (2011)
Disc Size: 47 680 729 506 bytes
Protection: AACS
BD-Java: Yes
BDInfo: 0.5.8
PLAYLIST REPORT:
Name: 00009.MPLS
Length: 0:56:46.750 (h:m:s.ms)
Size: 7 990 585 344 bytes
Total Bitrate: 18,76 Mbps
VIDEO:
Codec Bitrate Description
----- ------- -----------
MPEG-4 AVC Video 16130 kbps 1080p / 24 fps / 16:9 / High Profile 4.1
AUDIO:
Codec Language Bitrate Description
----- -------- ------- -----------
LPCM Audio Undetermined 1536 kbps 2.0 / 48 kHz / 1536 kbps / 16-bit
FILES:
Name Time In Length Size Total Bitrate
---- ------- ------ ---- -------------
00009.M2TS 0:00:00.000 0:56:46.750 7 990 585 344 18 764
CHAPTERS:
Number Time In Length Avg Video Rate Max 1-Sec Rate Max 1-Sec Time Max 5-Sec Rate Max 5-Sec Time Max 10Sec Rate Max 10Sec Time Avg Frame Size Max Frame Size Max Frame Time
------ ------- ------ -------------- -------------- -------------- -------------- -------------- -------------- -------------- -------------- -------------- --------------
1 0:00:00.000 0:56:46.750 16 130 kbps 39 822 kbps 00:08:39.291 35 587 kbps 00:08:35.875 32 486 kbps 00:15:15.666 84 009 bytes 403 282 bytes 00:44:58.583
STREAM DIAGNOSTICS:
File PID Type Codec Language Seconds Bitrate Bytes Packets
---- --- ---- ----- -------- -------------- -------------- ------------- -----
00009.M2TS 4113 (0x1011) 0x1B AVC 3406,625 16 130 6 868 729 872 37 378 116
00009.M2TS 4352 (0x1100) 0x80 LPCM und (Undetermined) 3406,625 1 542 656 819 472 4 088 098
QUICK SUMMARY:
Disc Title: Sonata Arctica_Live In Finland (2011)
Disc Size: 47 680 729 506 bytes
Protection: AACS
BD-Java: Yes
Playlist: 00009.MPLS
Size: 7 990 585 344 bytes
Length: 0:56:46.750
Total Bitrate: 18,76 Mbps
Video: MPEG-4 AVC Video / 16130 kbps / 1080p / 24 fps / 16:9 / High Profile 4.1
Audio: Undetermined / LPCM Audio / 2.0 / 48 kHz / 1536 kbps / 16-bit
********************
PLAYLIST: 00010.MPLS
********************
Код:
Total Video
Title Codec Length Movie Size Disc Size Bitrate Bitrate Main Audio Track Secondary Audio Track
----- ------ ------- -------------- -------------- ------- ------- ------------------ ---------------------
00010.MPLS AVC 0:26:51 3 972 046 848 47 680 729 506 19,72 17,05 LPCM 2.0 1536Kbps (48kHz/16-bit)
Код:
DISC INFO:
Disc Title: Sonata Arctica_Live In Finland (2011)
Disc Size: 47 680 729 506 bytes
Protection: AACS
BD-Java: Yes
BDInfo: 0.5.8
PLAYLIST REPORT:
Name: 00010.MPLS
Length: 0:26:51.416 (h:m:s.ms)
Size: 3 972 046 848 bytes
Total Bitrate: 19,72 Mbps
VIDEO:
Codec Bitrate Description
----- ------- -----------
MPEG-4 AVC Video 17045 kbps 1080p / 24 fps / 16:9 / High Profile 4.1
AUDIO:
Codec Language Bitrate Description
----- -------- ------- -----------
LPCM Audio Undetermined 1536 kbps 2.0 / 48 kHz / 1536 kbps / 16-bit
FILES:
Name Time In Length Size Total Bitrate
---- ------- ------ ---- -------------
00010.M2TS 0:00:00.000 0:26:51.416 3 972 046 848 19 720
CHAPTERS:
Number Time In Length Avg Video Rate Max 1-Sec Rate Max 1-Sec Time Max 5-Sec Rate Max 5-Sec Time Max 10Sec Rate Max 10Sec Time Avg Frame Size Max Frame Size Max Frame Time
------ ------- ------ -------------- -------------- -------------- -------------- -------------- -------------- -------------- -------------- -------------- --------------
1 0:00:00.000 0:26:51.416 17 045 kbps 43 220 kbps 00:20:16.124 33 961 kbps 00:20:16.125 29 686 kbps 00:06:39.624 88 777 bytes 486 943 bytes 00:20:16.166
STREAM DIAGNOSTICS:
File PID Type Codec Language Seconds Bitrate Bytes Packets
---- --- ---- ----- -------- -------------- -------------- ------------- -----
00010.M2TS 4113 (0x1011) 0x1B AVC 1611,250 17 047 3 433 367 193 18 682 410
00010.M2TS 4352 (0x1100) 0x80 LPCM und (Undetermined) 1611,250 1 543 310 680 812 1 933 703
QUICK SUMMARY:
Disc Title: Sonata Arctica_Live In Finland (2011)
Disc Size: 47 680 729 506 bytes
Protection: AACS
BD-Java: Yes
Playlist: 00010.MPLS
Size: 3 972 046 848 bytes
Length: 0:26:51.416
Total Bitrate: 19,72 Mbps
Video: MPEG-4 AVC Video / 17045 kbps / 1080p / 24 fps / 16:9 / High Profile 4.1
Audio: Undetermined / LPCM Audio / 2.0 / 48 kHz / 1536 kbps / 16-bit
********************
PLAYLIST: 00011.MPLS
********************
Код:
Total Video
Title Codec Length Movie Size Disc Size Bitrate Bitrate Main Audio Track Secondary Audio Track
----- ------ ------- -------------- -------------- ------- ------- ------------------ ---------------------
00011.MPLS AVC 0:04:41 728 334 336 47 680 729 506 20,68 17,97 LPCM 2.0 1536Kbps (48kHz/16-bit)
Код:
DISC INFO:
Disc Title: Sonata Arctica_Live In Finland (2011)
Disc Size: 47 680 729 506 bytes
Protection: AACS
BD-Java: Yes
BDInfo: 0.5.8
PLAYLIST REPORT:
Name: 00011.MPLS
Length: 0:04:41.708 (h:m:s.ms)
Size: 728 334 336 bytes
Total Bitrate: 20,68 Mbps
VIDEO:
Codec Bitrate Description
----- ------- -----------
MPEG-4 AVC Video 17969 kbps 1080p / 24 fps / 16:9 / High Profile 4.1
AUDIO:
Codec Language Bitrate Description
----- -------- ------- -----------
LPCM Audio Undetermined 1536 kbps 2.0 / 48 kHz / 1536 kbps / 16-bit
FILES:
Name Time In Length Size Total Bitrate
---- ------- ------ ---- -------------
00011.M2TS 0:00:00.000 0:04:41.708 728 334 336 20 683
CHAPTERS:
Number Time In Length Avg Video Rate Max 1-Sec Rate Max 1-Sec Time Max 5-Sec Rate Max 5-Sec Time Max 10Sec Rate Max 10Sec Time Avg Frame Size Max Frame Size Max Frame Time
------ ------- ------ -------------- -------------- -------------- -------------- -------------- -------------- -------------- -------------- -------------- --------------
1 0:00:00.000 0:04:41.708 17 969 kbps 28 674 kbps 00:02:49.791 25 690 kbps 00:02:46.708 24 044 kbps 00:02:46.791 93 588 bytes 265 827 bytes 00:02:50.333
STREAM DIAGNOSTICS:
File PID Type Codec Language Seconds Bitrate Bytes Packets
---- --- ---- ----- -------- -------------- -------------- ------------- -----
00011.M2TS 4113 (0x1011) 0x1B AVC 281,542 17 980 632 751 316 3 442 806
00011.M2TS 4352 (0x1100) 0x80 LPCM und (Undetermined) 281,542 1 543 54 313 688 338 052
QUICK SUMMARY:
Disc Title: Sonata Arctica_Live In Finland (2011)
Disc Size: 47 680 729 506 bytes
Protection: AACS
BD-Java: Yes
Playlist: 00011.MPLS
Size: 728 334 336 bytes
Length: 0:04:41.708
Total Bitrate: 20,68 Mbps
Video: MPEG-4 AVC Video / 17969 kbps / 1080p / 24 fps / 16:9 / High Profile 4.1
Audio: Undetermined / LPCM Audio / 2.0 / 48 kHz / 1536 kbps / 16-bit
********************
PLAYLIST: 00012.MPLS
********************
Код:
Total Video
Title Codec Length Movie Size Disc Size Bitrate Bitrate Main Audio Track Secondary Audio Track
----- ------ ------- -------------- -------------- ------- ------- ------------------ ---------------------
00012.MPLS AVC 0:04:03 631 382 016 47 680 729 506 20,72 18,00 LPCM 2.0 1536Kbps (48kHz/16-bit)
Код:
DISC INFO:
Disc Title: Sonata Arctica_Live In Finland (2011)
Disc Size: 47 680 729 506 bytes
Protection: AACS
BD-Java: Yes
BDInfo: 0.5.8
PLAYLIST REPORT:
Name: 00012.MPLS
Length: 0:04:03.833 (h:m:s.ms)
Size: 631 382 016 bytes
Total Bitrate: 20,72 Mbps
VIDEO:
Codec Bitrate Description
----- ------- -----------
MPEG-4 AVC Video 17999 kbps 1080p / 24 fps / 16:9 / High Profile 4.1
AUDIO:
Codec Language Bitrate Description
----- -------- ------- -----------
LPCM Audio Undetermined 1536 kbps 2.0 / 48 kHz / 1536 kbps / 16-bit
FILES:
Name Time In Length Size Total Bitrate
---- ------- ------ ---- -------------
00012.M2TS 0:00:00.000 0:04:03.833 631 382 016 20 715
CHAPTERS:
Number Time In Length Avg Video Rate Max 1-Sec Rate Max 1-Sec Time Max 5-Sec Rate Max 5-Sec Time Max 10Sec Rate Max 10Sec Time Avg Frame Size Max Frame Size Max Frame Time
------ ------- ------ -------------- -------------- -------------- -------------- -------------- -------------- -------------- -------------- -------------- --------------
1 0:00:00.000 0:04:03.833 17 999 kbps 49 664 kbps 00:04:00.041 32 153 kbps 00:03:56.208 26 681 kbps 00:03:51.208 93 746 bytes 450 475 bytes 00:02:26.041
STREAM DIAGNOSTICS:
File PID Type Codec Language Seconds Bitrate Bytes Packets
---- --- ---- ----- -------- -------------- -------------- ------------- -----
00012.M2TS 4113 (0x1011) 0x1B AVC 243,667 18 012 548 601 808 2 984 973
00012.M2TS 4352 (0x1100) 0x80 LPCM und (Undetermined) 243,667 1 543 47 011 388 292 602
QUICK SUMMARY:
Disc Title: Sonata Arctica_Live In Finland (2011)
Disc Size: 47 680 729 506 bytes
Protection: AACS
BD-Java: Yes
Playlist: 00012.MPLS
Size: 631 382 016 bytes
Length: 0:04:03.833
Total Bitrate: 20,72 Mbps
Video: MPEG-4 AVC Video / 17999 kbps / 1080p / 24 fps / 16:9 / High Profile 4.1
Audio: Undetermined / LPCM Audio / 2.0 / 48 kHz / 1536 kbps / 16-bit
********************
PLAYLIST: 00013.MPLS
********************
Код:
Total Video
Title Codec Length Movie Size Disc Size Bitrate Bitrate Main Audio Track Secondary Audio Track
----- ------ ------- -------------- -------------- ------- ------- ------------------ ---------------------
00013.MPLS AVC 0:04:20 673 234 944 47 680 729 506 20,71 18,00 LPCM 2.0 1536Kbps (48kHz/16-bit)
Код:
DISC INFO:
Disc Title: Sonata Arctica_Live In Finland (2011)
Disc Size: 47 680 729 506 bytes
Protection: AACS
BD-Java: Yes
BDInfo: 0.5.8
PLAYLIST REPORT:
Name: 00013.MPLS
Length: 0:04:20.041 (h:m:s.ms)
Size: 673 234 944 bytes
Total Bitrate: 20,71 Mbps
VIDEO:
Codec Bitrate Description
----- ------- -----------
MPEG-4 AVC Video 17996 kbps 1080p / 24 fps / 16:9 / High Profile 4.1
AUDIO:
Codec Language Bitrate Description
----- -------- ------- -----------
LPCM Audio Undetermined 1536 kbps 2.0 / 48 kHz / 1536 kbps / 16-bit
FILES:
Name Time In Length Size Total Bitrate
---- ------- ------ ---- -------------
00013.M2TS 0:00:00.000 0:04:20.041 673 234 944 20 712
CHAPTERS:
Number Time In Length Avg Video Rate Max 1-Sec Rate Max 1-Sec Time Max 5-Sec Rate Max 5-Sec Time Max 10Sec Rate Max 10Sec Time Avg Frame Size Max Frame Size Max Frame Time
------ ------- ------ -------------- -------------- -------------- -------------- -------------- -------------- -------------- -------------- -------------- --------------
1 0:00:00.000 0:04:20.041 17 996 kbps 31 847 kbps 00:00:02.875 25 055 kbps 00:00:00.374 21 902 kbps 00:02:01.583 93 728 bytes 430 316 bytes 00:01:55.041
STREAM DIAGNOSTICS:
File PID Type Codec Language Seconds Bitrate Bytes Packets
---- --- ---- ----- -------- -------------- -------------- ------------- -----
00013.M2TS 4113 (0x1011) 0x1B AVC 259,958 18 002 584 959 255 3 182 786
00013.M2TS 4352 (0x1100) 0x80 LPCM und (Undetermined) 259,958 1 543 50 136 676 312 054
QUICK SUMMARY:
Disc Title: Sonata Arctica_Live In Finland (2011)
Disc Size: 47 680 729 506 bytes
Protection: AACS
BD-Java: Yes
Playlist: 00013.MPLS
Size: 673 234 944 bytes
Length: 0:04:20.041
Total Bitrate: 20,71 Mbps
Video: MPEG-4 AVC Video / 17996 kbps / 1080p / 24 fps / 16:9 / High Profile 4.1
Audio: Undetermined / LPCM Audio / 2.0 / 48 kHz / 1536 kbps / 16-bit
********************
PLAYLIST: 00014.MPLS
********************
Код:
Total Video
Title Codec Length Movie Size Disc Size Bitrate Bitrate Main Audio Track Secondary Audio Track
----- ------ ------- -------------- -------------- ------- ------- ------------------ ---------------------
00014.MPLS AVC 0:05:13 784 232 448 47 680 729 506 20,02 17,33 LPCM 2.0 1536Kbps (48kHz/16-bit)
Код:
DISC INFO:
Disc Title: Sonata Arctica_Live In Finland (2011)
Disc Size: 47 680 729 506 bytes
Protection: AACS
BD-Java: Yes
BDInfo: 0.5.8
PLAYLIST REPORT:
Name: 00014.MPLS
Length: 0:05:13.416 (h:m:s.ms)
Size: 784 232 448 bytes
Total Bitrate: 20,02 Mbps
VIDEO:
Codec Bitrate Description
----- ------- -----------
MPEG-4 AVC Video 17332 kbps 1080p / 24 fps / 16:9 / High Profile 4.1
AUDIO:
Codec Language Bitrate Description
----- -------- ------- -----------
LPCM Audio Undetermined 1536 kbps 2.0 / 48 kHz / 1536 kbps / 16-bit
FILES:
Name Time In Length Size Total Bitrate
---- ------- ------ ---- -------------
00014.M2TS 0:00:00.000 0:05:13.416 784 232 448 20 018
CHAPTERS:
Number Time In Length Avg Video Rate Max 1-Sec Rate Max 1-Sec Time Max 5-Sec Rate Max 5-Sec Time Max 10Sec Rate Max 10Sec Time Avg Frame Size Max Frame Size Max Frame Time
------ ------- ------ -------------- -------------- -------------- -------------- -------------- -------------- -------------- -------------- -------------- --------------
1 0:00:00.000 0:05:13.416 17 332 kbps 53 782 kbps 00:02:59.625 35 069 kbps 00:04:22.291 30 663 kbps 00:04:17.291 90 273 bytes 678 617 bytes 00:00:41.333
STREAM DIAGNOSTICS:
File PID Type Codec Language Seconds Bitrate Bytes Packets
---- --- ---- ----- -------- -------------- -------------- ------------- -----
00014.M2TS 4113 (0x1011) 0x1B AVC 313,292 17 339 679 031 081 3 694 476
00014.M2TS 4352 (0x1100) 0x80 LPCM und (Undetermined) 313,292 1 543 60 427 376 376 104
QUICK SUMMARY:
Disc Title: Sonata Arctica_Live In Finland (2011)
Disc Size: 47 680 729 506 bytes
Protection: AACS
BD-Java: Yes
Playlist: 00014.MPLS
Size: 784 232 448 bytes
Length: 0:05:13.416
Total Bitrate: 20,02 Mbps
Video: MPEG-4 AVC Video / 17332 kbps / 1080p / 24 fps / 16:9 / High Profile 4.1
Audio: Undetermined / LPCM Audio / 2.0 / 48 kHz / 1536 kbps / 16-bit
********************
PLAYLIST: 00015.MPLS
********************
Код:
Total Video
Title Codec Length Movie Size Disc Size Bitrate Bitrate Main Audio Track Secondary Audio Track
----- ------ ------- -------------- -------------- ------- ------- ------------------ ---------------------
00015.MPLS AVC 0:03:57 598 665 216 47 680 729 506 20,17 17,47 LPCM 2.0 1536Kbps (48kHz/16-bit)
Код:
DISC INFO:
Disc Title: Sonata Arctica_Live In Finland (2011)
Disc Size: 47 680 729 506 bytes
Protection: AACS
BD-Java: Yes
BDInfo: 0.5.8
PLAYLIST REPORT:
Name: 00015.MPLS
Length: 0:03:57.500 (h:m:s.ms)
Size: 598 665 216 bytes
Total Bitrate: 20,17 Mbps
VIDEO:
Codec Bitrate Description
----- ------- -----------
MPEG-4 AVC Video 17473 kbps 1080p / 24 fps / 16:9 / High Profile 4.1
AUDIO:
Codec Language Bitrate Description
----- -------- ------- -----------
LPCM Audio Undetermined 1536 kbps 2.0 / 48 kHz / 1536 kbps / 16-bit
FILES:
Name Time In Length Size Total Bitrate
---- ------- ------ ---- -------------
00015.M2TS 0:00:00.000 0:03:57.500 598 665 216 20 166
CHAPTERS:
Number Time In Length Avg Video Rate Max 1-Sec Rate Max 1-Sec Time Max 5-Sec Rate Max 5-Sec Time Max 10Sec Rate Max 10Sec Time Avg Frame Size Max Frame Size Max Frame Time
------ ------- ------ -------------- -------------- -------------- -------------- -------------- -------------- -------------- -------------- -------------- --------------
1 0:00:00.000 0:03:57.500 17 473 kbps 50 968 kbps 00:00:36.958 33 390 kbps 00:02:00.166 30 354 kbps 00:02:24.125 91 005 bytes 780 387 bytes 00:03:46.666
STREAM DIAGNOSTICS:
File PID Type Codec Language Seconds Bitrate Bytes Packets
---- --- ---- ----- -------- -------------- -------------- ------------- -----
00015.M2TS 4113 (0x1011) 0x1B AVC 237,375 17 482 518 727 911 2 822 455
00015.M2TS 4352 (0x1100) 0x80 LPCM und (Undetermined) 237,375 1 543 45 790 000 285 000
QUICK SUMMARY:
Disc Title: Sonata Arctica_Live In Finland (2011)
Disc Size: 47 680 729 506 bytes
Protection: AACS
BD-Java: Yes
Playlist: 00015.MPLS
Size: 598 665 216 bytes
Length: 0:03:57.500
Total Bitrate: 20,17 Mbps
Video: MPEG-4 AVC Video / 17473 kbps / 1080p / 24 fps / 16:9 / High Profile 4.1
Audio: Undetermined / LPCM Audio / 2.0 / 48 kHz / 1536 kbps / 16-bit
********************
PLAYLIST: 00016.MPLS
********************
Код:
Total Video
Title Codec Length Movie Size Disc Size Bitrate Bitrate Main Audio Track Secondary Audio Track
----- ------ ------- -------------- -------------- ------- ------- ------------------ ---------------------
00016.MPLS AVC 0:03:54 295 962 624 47 680 729 506 10,12 7,84 LPCM 2.0 1536Kbps (48kHz/16-bit)
Код:
DISC INFO:
Disc Title: Sonata Arctica_Live In Finland (2011)
Disc Size: 47 680 729 506 bytes
Protection: AACS
BD-Java: Yes
BDInfo: 0.5.8
PLAYLIST REPORT:
Name: 00016.MPLS
Length: 0:03:54.041 (h:m:s.ms)
Size: 295 962 624 bytes
Total Bitrate: 10,12 Mbps
VIDEO:
Codec Bitrate Description
----- ------- -----------
MPEG-4 AVC Video 7842 kbps 1080p / 24 fps / 16:9 / High Profile 4.1
AUDIO:
Codec Language Bitrate Description
----- -------- ------- -----------
LPCM Audio Undetermined 1536 kbps 2.0 / 48 kHz / 1536 kbps / 16-bit
FILES:
Name Time In Length Size Total Bitrate
---- ------- ------ ---- -------------
00016.M2TS 0:00:00.000 0:03:54.041 295 962 624 10 117
CHAPTERS:
Number Time In Length Avg Video Rate Max 1-Sec Rate Max 1-Sec Time Max 5-Sec Rate Max 5-Sec Time Max 10Sec Rate Max 10Sec Time Avg Frame Size Max Frame Size Max Frame Time
------ ------- ------ -------------- -------------- -------------- -------------- -------------- -------------- -------------- -------------- -------------- --------------
1 0:00:00.000 0:03:54.041 7 842 kbps 42 335 kbps 00:00:17.624 27 273 kbps 00:00:17.125 21 043 kbps 00:03:32.708 40 845 bytes 732 612 bytes 00:00:36.125
STREAM DIAGNOSTICS:
File PID Type Codec Language Seconds Bitrate Bytes Packets
---- --- ---- ----- -------- -------------- -------------- ------------- -----
00016.M2TS 4113 (0x1011) 0x1B AVC 233,875 7 848 229 424 064 1 250 191
00016.M2TS 4352 (0x1100) 0x80 LPCM und (Undetermined) 233,875 1 544 45 123 876 280 854
QUICK SUMMARY:
Disc Title: Sonata Arctica_Live In Finland (2011)
Disc Size: 47 680 729 506 bytes
Protection: AACS
BD-Java: Yes
Playlist: 00016.MPLS
Size: 295 962 624 bytes
Length: 0:03:54.041
Total Bitrate: 10,12 Mbps
Video: MPEG-4 AVC Video / 7842 kbps / 1080p / 24 fps / 16:9 / High Profile 4.1
Audio: Undetermined / LPCM Audio / 2.0 / 48 kHz / 1536 kbps / 16-bit
Дополнительные материалы:

Sonata Arctica Open Air II

Видео: H.264, 1920*1080, 16:9, 18.3 Mbps, 24 fps
Аудио #1: PCM, 1536 kbps, 48 kHz, 2 ch
Описание: Видеоматериал с Sonata Arctica Open Air II прошедшего в родном городе группы Кеми в августе 2009 года.
Треклист:
01. White Pearl, Black Oceans
02. Draw Me
03. In Black & White
04. Don't Say A Word

Acoustic Live At Alcatraz, Milano

Видео: H.264, 1920*1080, 16:9, 15.2 Mbps, 24 fps
Аудио #1: PCM, 1536 kbps, 48 kHz, 2 ch
Описание: Видеоматериал c акустического выступления в клубе Alcatraz в Милане, Италия, прошедшего 27 февраля 2011 года
Треклист:
01. Mary-Lou
02. Shy
03. Letter To Dana

Making Of Live In Finland

Видео: H.264, 1920*1080, 16:9, 18.3 Mbps, 24 fps
Аудио #1: PCM, 1536 kbps, 48 kHz, 2 ch
Описание: Видеоматериал с создания концертного DVD "Live In Finland"

Making Of Flag In The Ground

Видео: H.264, 1920*1080, 16:9, 14.0 Mbps, 24 fps
Аудио #1: PCM, 1536 kbps, 48 kHz, 2 ch
Описание: Видеоматериал с создания клипа "Flag In The Ground"

Latin American Tour Documentary 2010

Видео: H.264, 1920*1080, 16:9, 16.5 Mbps, 24 fps
Аудио #1: PCM, 1536 kbps, 48 kHz, 2 ch
Описание: Видеоматериал с тура по Латинской Америке

Made In Finland

Видео: H.264, 1920*1080, 16:9, 17.4 Mbps, 24 fps
Аудио #1: PCM, 1536 kbps, 48 kHz, 2 ch
Описание: Видеоматериал с тура "The Days Of Grays"

Don't Say A Word

Видео: H.264, 1920*1080, 16:9, 18.3 Mbps, 24 fps
Аудио #1: PCM, 1536 kbps, 48 kHz, 2 ch
Описание: Видеоклип на песню "Don't Say A Word"

Paid In Full

Видео: H.264, 1920*1080, 16:9, 18.3 Mbps, 24 fps
Аудио #1: PCM, 1536 kbps, 48 kHz, 2 ch
Описание: Видеоклип на песню "Paid In Full"

Flag In The Ground

Видео: H.264, 1920*1080, 16:9, 18.3 Mbps, 24 fps
Аудио #1: PCM, 1536 kbps, 48 kHz, 2 ch
Описание: Видеоклип на песню "Flag In The Ground"

Mika Jussila Photo Art Gallery Tavastia

Видео: H.264, 1920*1080, 16:9, 17.7 Mbps, 24 fps
Аудио #1: PCM, 1536 kbps, 48 kHz, 2 ch
Описание: Фото с концерта в клубе Tavastia в городе Хельсинки, Финляндия, прошедшем 8 апреля 2011 года

Mika Jussila Photo Art Gallery Sonisphere

Видео: H.264, 1920*1080, 16:9, 17.8 Mbps, 24 fps
Аудио #1: PCM, 1536 kbps, 48 kHz, 2 ch
Описание: Фото с концерта в Sonisphere в городе Хельсинки, Финляндия, прошедшем 2 июля 2011 года

Flag In The Ground Cover Contest

Видео: H.264, 1920*1080, 16:9, 8159 kbps, 24 fps
Аудио #1: PCM, 1536 kbps, 48 kHz, 2 ch
Описание: Рисунки обложки сингла "Flag In The Ground" присланные группе со всего света
Скриншоты меню
     
Скриншоты основного концерта
     
Скриншоты доп. материалов        
       
        Время раздачи: 24/7

_________________

Создавая "Новую папку", не считайте себя Создателем - это право Вам дано Админом


Other forum [Profile] [PM]
Display posts from previous:    
Reply to topic

The time now is: Today 12:56

All times are GMT + 3 Hours



You cannot post new topics in this forum
You cannot reply to topics in this forum
You cannot edit your posts in this forum
You cannot delete your posts in this forum
You cannot vote in polls in this forum
You cannot attach files in this forum
You cannot download files in this forum