Today is a free download without charge Download

Скромное обаяние буржуазии / The Discreet Charm of the Bourgeoisie / Le charme discret de la bourgeoisie (Луис Бунюэль /Luis Bunuel/) [1972, сюрреалистический фарс, BDRip 720p] [Франция, Италия, Испания] DVO, MVO, DUB + Sub Rus, Fre, Eng

Reply to topic
 
Author
Message

Omen ®

Longevity: 8 years 5 months

Posts: 181087

Торрент-статистика

Post 03-Mar-2013 04:08

[Quote]

Скромное обаяние буржуазии / The Discreet Charm of the Bourgeoisie / Le charme discret de la bourgeoisie
Страна: Франция, Италия, Испания
Жанр: сюрреалистический фарс
Год выпуска: 1972
Продолжительность: 1h 41mn 32s-Перевод 1: Профессиональный (двухголосый, закадровый) R5, RUSCICO
Перевод 2: Профессиональный (многоголосый, закадровый) R5, SomeWax
Перевод 3: Дубляж (Старый дубляж, аудиодорожка плохого качества, посторонние шумы и т. д.)
Оригинальная аудиодорожка: French
Отдельным файлом:
Перевод 4: Многоголосый закадровый, R5, DVD Магия|
Перевод 5: Многоголосый закадровый, НТВ
Перевод 6: Одноголосый закадровый, С.Кузнецов|-Cубтитры: Rus, French, English Format : SRT
Режиссер: Луис Бунюэль /Luis Bunuel/-В ролях: Фернандо Рей /Fernando Rey/, Поль Франкур /Paul Frankeur/, Дельфин Сейриг /Delphine Seyrig/, Бюль Ожье /Bulle Ogier/, Стефани Одран /Stephane Audran/, Жан-Пьер Кассель /Jean-Pierre Cassel/-Описание: Бесплотная паутина снов внутри снов, в которых снится сон. Герои фильма — шесть человек из верхних слоёв среднего класса — на протяжении фильма пытаются, несмотря на постоянно возникающие препятствия, вместе пообедать.-
Sample

IMDB Ratings: 7,9/10 from 17 287 users-

Награды и номинации

-Качество видео: BDRip 720p (BDRemux)
Формат видео: MKV
Видео: AVC 7 700 Kbps 1208 x 720 (1.678) at 24.000 fps
Аудио: DTS Bit rate : 768 Kbps Channel(s) : 2 channels Front: L R 48.0 KHz Rus DVO R5, RUSCICO
Аудио 2: AC-3 192 Kbps Front: L R 2 channels, 48.0 KHz Rus MVO R5, SomeWax
Аудио 3: AC-3 96.0 Kbps 1 channel, 48.0 KHz Rus DUB
Аудио 4: DTS 768 Kbps 2 channels, 48.0 KHz French-Отдельным файлом:
Аудио 5: Russian: 48 kHz, AC3, 2/0 (L,R) ch, ~192.00 kbps avg | Многоголосый закадровый, R5, DVD Магия|
Аудио 6: Russian: 48 kHz, AC3, 2/0 (L,R) ch, ~192.00 kbps avg |Многоголосый закадровый, НТВ|
Аудио 7: Russian: DTS 768 Kbps 2 channels, 48.0 KHz |Одноголосый закадровый, С.Кузнецов|
Аудио 8: DTS 768 Kbps 2 channels, 48.0 KHz English-

MediaInfo | Log

Log

x264 [info]: frame I:678 Avg QP:17.25 size:166104
x264 [info]: frame P:28551 Avg QP:19.50 size: 76515
x264 [info]: frame B:116979 Avg QP:22.08 size: 30483
x264 [info]: consecutive B-frames: 0.7% 0.8% 4.9% 12.8% 19.3% 58.3% 2.8% 0.3% 0.2%
x264 [info]: mb I I16..4: 1.8% 84.0% 14.2%
x264 [info]: mb P I16..4: 0.2% 16.1% 0.9% P16..4: 27.6% 36.0% 15.9% 2.2% 0.1% skip: 0.8%
x264 [info]: mb B I16..4: 0.0% 3.3% 0.1% B16..8: 39.5% 20.1% 4.0% direct:11.0% skip:22.0% L0:42.7% L1:42.0% BI:15.2%
x264 [info]: 8x8 transform intra:94.5% inter:61.5%
x264 [info]: direct mvs spatial:98.2% temporal:1.8%
x264 [info]: coded y,uvDC,uvAC intra: 98.6% 70.3% 26.7% inter: 50.4% 24.2% 1.1%
x264 [info]: i16 v,h,dc,p: 70% 7% 5% 19%
x264 [info]: i8 v,h,dc,ddl,ddr,vr,hd,vl,hu: 12% 7% 11% 10% 13% 14% 10% 12% 11%
x264 [info]: i4 v,h,dc,ddl,ddr,vr,hd,vl,hu: 15% 8% 4% 9% 14% 16% 11% 13% 10%
x264 [info]: i8c dc,h,v,p: 31% 28% 25% 16%
x264 [info]: Weighted P-Frames: Y:5.7% UV:1.1%
x264 [info]: ref P L0: 35.1% 11.7% 21.2% 7.6% 7.8% 4.9% 5.4% 2.7% 3.3% 0.3% 0.0%
x264 [info]: ref B L0: 81.0% 9.3% 3.7% 2.1% 1.5% 1.3% 0.7% 0.4%
x264 [info]: ref B L1: 95.8% 4.2%
x264 [info]: kb/s:7699.33
x264 [total]: encoded 146208 frames, 6.35 fps, 7699.33 kb/s
Format : Matroska
Format version : Version 4 / Version 2
File size : 6.76 GiB
Duration : 1h 41mn
Overall bit rate : 9 527 Kbps
Encoded date : UTC 2013-03-02 19:56:40
Writing application : mkvmerge v6.0.0 ('Coming Up For Air') built on Jan 20 2013 09:52:00
Writing library : libebml v1.3.0 + libmatroska v1.4.0
Video
ID : 1
Format : AVC
Format/Info : Advanced Video Codec
Format profile : [email protected]
Format settings, CABAC : Yes
Format settings, ReFrames : 9 frames
Codec ID : V_MPEG4/ISO/AVC
Duration : 1h 41mn
Bit rate : 7 700 Kbps
Width : 1 208 pixels
Height : 720 pixels
Display aspect ratio : 1.678
Frame rate mode : Constant
Frame rate : 24.000 fps
Color space : YUV
Chroma subsampling : 4:2:0
Bit depth : 8 bits
Scan type : Progressive
Bits/(Pixel*Frame) : 0.369
Stream size : 5.33 GiB (79%)
Writing library : x264 core 129 r2245 bc13772
Encoding settings : cabac=1 / ref=9 / deblock=1:-3:-2 / analyse=0x3:0x133 / me=umh / subme=11 / psy=1 / psy_rd=1.00:0.05 / mixed_ref=1 / me_range=32 / chroma_me=1 / trellis=2 / 8x8dct=1 / cqm=0 / deadzone=21,11 / fast_pskip=0 / chroma_qp_offset=-3 / threads=12 / lookahead_threads=2 / sliced_threads=0 / nr=0 / decimate=1 / interlaced=0 / bluray_compat=0 / constrained_intra=0 / bframes=8 / b_pyramid=2 / b_adapt=2 / b_bias=0 / direct=3 / weightb=1 / open_gop=0 / weightp=2 / keyint=250 / keyint_min=23 / scenecut=40 / intra_refresh=0 / rc_lookahead=60 / rc=2pass / mbtree=1 / bitrate=7700 / ratetol=1.0 / qcomp=0.60 / qpmin=0 / qpmax=69 / qpstep=4 / cplxblur=20.0 / qblur=0.5 / ip_ratio=1.40 / aq=1:1.00
Language : English
Default : Yes
Forced : No
Audio #1
ID : 2
Format : DTS
Format/Info : Digital Theater Systems
Mode : 16
Format settings, Endianness : Big
Codec ID : A_DTS
Duration : 1h 41mn
Bit rate mode : Constant
Bit rate : 768 Kbps
Channel(s) : 2 channels
Channel positions : Front: L R
Sampling rate : 48.0 KHz
Bit depth : 16 bits
Compression mode : Lossy
Delay relative to video : 10ms
Stream size : 558 MiB (8%)
Title : Rus DVO R5, RUSCICO
Language : Russian
Default : Yes
Forced : No
Audio #2
ID : 3
Format : AC-3
Format/Info : Audio Coding 3
Mode extension : CM (complete main)
Format settings, Endianness : Big
Codec ID : A_AC3
Duration : 1h 41mn
Bit rate mode : Constant
Bit rate : 192 Kbps
Channel(s) : 2 channels
Channel positions : Front: L R
Sampling rate : 48.0 KHz
Bit depth : 16 bits
Compression mode : Lossy
Delay relative to video : 400ms
Stream size : 139 MiB (2%)
Title : Rus MVO R5, SomeWax
Language : Russian
Default : No
Forced : No
Audio #3
ID : 4
Format : AC-3
Format/Info : Audio Coding 3
Mode extension : CM (complete main)
Format settings, Endianness : Big
Codec ID : A_AC3
Duration : 1h 41mn
Bit rate mode : Constant
Bit rate : 96.0 Kbps
Channel(s) : 1 channel
Channel positions : Front: C
Sampling rate : 48.0 KHz
Bit depth : 16 bits
Compression mode : Lossy
Delay relative to video : 100ms
Stream size : 69.7 MiB (1%)
Title : Dub
Language : Russian
Default : No
Forced : No
Audio #4
ID : 5
Format : DTS
Format/Info : Digital Theater Systems
Mode : 16
Format settings, Endianness : Big
Codec ID : A_DTS
Duration : 1h 41mn
Bit rate mode : Constant
Bit rate : 768 Kbps
Channel(s) : 2 channels
Channel positions : Front: L R
Sampling rate : 48.0 KHz
Bit depth : 16 bits
Compression mode : Lossy
Delay relative to video : 10ms
Stream size : 558 MiB (8%)
Title : Fre
Language : French
Default : No
Forced : No
Text #1
ID : 6
Format : UTF-8
Codec ID : S_TEXT/UTF8
Codec ID/Info : UTF-8 Plain Text
Title : Rus
Language : Russian
Default : No
Forced : No
Text #2
ID : 7
Format : UTF-8
Codec ID : S_TEXT/UTF8
Codec ID/Info : UTF-8 Plain Text
Title : Fre
Language : French
Default : Yes
Forced : No
Text #3
ID : 8
Format : UTF-8
Codec ID : S_TEXT/UTF8
Codec ID/Info : UTF-8 Plain Text
Title : Eng
Language : English
Default : No
Forced : No

Скриншоты

Размер основного файла -- 6,75 Гб., если Вам не нужны дополнительные дорожки - снимите галочку в торрент - клиенте
Other forum [Profile] [PM]
Display posts from previous:    
Reply to topic

The time now is: Today 19:24

All times are GMT + 3 Hours



You cannot post new topics in this forum
You cannot reply to topics in this forum
You cannot edit your posts in this forum
You cannot delete your posts in this forum
You cannot vote in polls in this forum
You cannot attach files in this forum
You cannot download files in this forum