Today is a free download without charge Download

Вдали от небес / Вдали от рая / Far from Heaven (Тодд Хейнс / Todd Haynes) [2002, США, драма, мелодрама, BDRemux 1080p] 2x MVO (CP Digital, Парадиз-ВC) + 3x Sub (Rus, Eng) + Original Eng

Reply to topic
 
Author
Message

Omen ®

Longevity: 8 years 5 months

Posts: 181087

Торрент-статистика

Post 03-Mar-2013 04:08

[Quote]

Вдали от небес / Вдали от рая / Far from Heaven
Страна: США
Жанр: драма, мелодрама
Год выпуска: 2002
Продолжительность: 01:47:20
Перевод 1: Профессиональный (многоголосый закадровый) CP Digital
Перевод 2: Профессиональный (многоголосый закадровый) Парадиз-ВC
Cубтитры: русские (2 вида), английские
Оригинальная аудиодорожка: английский
-
Режиссер: Тодд Хейнс / Todd Haynes
В ролях: Джулианна Мур, Деннис Куэйд, Деннис Хейсбёрт, Патришия Кларксон, Виола Дэвис, Джеймс Ребхорн, Бетти Хенрице, Майкл Гэстон, Райан Уорд и др.
-
Описание: 1957 год. Жена преуспевающего бизнесмена, Кэти, застает своего мужа Фрэнка в недвусмысленной ситуации: супруг изменяет ей с мужчиной. Кэти тоже дает волю своим чувствам, и сближается с чернокожим садовником Рэймондом. Однако маленький провинциальный город, в котором они живут, считает этот роман еще большей бедой, чем нетрадиционная сексуальная ориентация Фрэнка…

Тип релиза: BDRemux 1080p
Контейнер: MKV
Видео: MPEG-4 AVC / NTSC 16:9 / 1920x1080 (1,85:1) / 19999 kbps / 23,976 fps / 0.435 bit/pixel / [email protected]
Аудио 1: Russian / AC3 / 48 kHz / 5.1 Ch / 448 kbps / 16 bit / MVO / CP Digital
Аудио 2: Russian / AC3 / 48 kHz / 5.1 Ch / 384 kbps / 16 bit / MVO / Парадиз-ВC
Аудио 3: English / DTS-HD Master Audio / 5.1 Ch / 48 kHz / 3657 kbps / 24-bit (DTS Core: 5.1 Ch / 48 kHz / 1509 kbps / 24-bit) / Original
Формат субтитров: softsub (SRT)
Навигация по главам: есть

MediaInfo

Общее
Уникальный идентификатор : 209517544993579296478605521504057872184 (0x9D9F9C8340CB7593A75B819289F2CF38)
Полное имя : W:\BDRemux 1080p\Far from Heaven.2002.BDRemux.1080p.mkv
Формат : Matroska
Версия формата : Version 4 / Version 2
Размер файла : 18,4 Гбайт
Продолжительность : 1 ч. 47 м.
Режим общего битрейта : Переменный
Общий поток : 24,5 Мбит/сек
Дата кодирования : UTC 2013-02-28 23:37:35
Программа кодирования : mkvmerge v6.0.0 ('Coming Up For Air') built on Jan 20 2013 09:52:00
Библиотека кодирования : libebml v1.3.0 + libmatroska v1.4.0
Видео
Идентификатор : 1
Формат : AVC
Формат/Информация : Advanced Video Codec
Профиль формата : [email protected]
Параметр CABAC формата : Да
Параметр ReFrames формата : 4 кадра
Параметр GOP формата : M=3, N=24
Идентификатор кодека : V_MPEG4/ISO/AVC
Продолжительность : 1 ч. 47 м.
Вид битрейта : Переменный
Битрейт : 21,6 Мбит/сек
Максимальный битрейт : 25,0 Мбит/сек
Ширина : 1920 пикселей
Высота : 1080 пикселей
Соотношение сторон : 16:9
Режим частоты кадров : Постоянный
Частота кадров : 23,976 кадра/сек
Стандарт вещания : NTSC
Цветовое пространство : YUV
Субдискретизация насыщенности : 4:2:0
Битовая глубина : 8 бит
Тип развёртки : Прогрессивная
Бит/(Пиксели*Кадры) : 0.435
Размер потока : 16,2 Гбайт (88%)
Default : Да
Forced : Нет
Основные цвета : BT.709
Характеристики трансфера : BT.709
Коэффициенты матрицы : BT.709
Аудио #1
Идентификатор : 2
Формат : AC-3
Формат/Информация : Audio Coding 3
Расширение режима : CM (complete main)
Параметр Endianness формата : Big
Идентификатор кодека : A_AC3
Продолжительность : 1 ч. 47 м.
Вид битрейта : Постоянный
Битрейт : 448 Кбит/сек
Каналы : 6 каналов
Расположение каналов : Front: L C R, Side: L R, LFE
Частота : 48,0 КГц
Битовая глубина : 16 бит
Метод сжатия : С потерями
Размер потока : 344 Мбайт (2%)
Заголовок : CP Digital
Язык : Russian
Default : Да
Forced : Нет
Аудио #2
Идентификатор : 3
Формат : AC-3
Формат/Информация : Audio Coding 3
Расширение режима : CM (complete main)
Параметр Endianness формата : Big
Идентификатор кодека : A_AC3
Продолжительность : 1 ч. 47 м.
Вид битрейта : Постоянный
Битрейт : 384 Кбит/сек
Каналы : 6 каналов
Расположение каналов : Front: L C R, Side: L R, LFE
Частота : 48,0 КГц
Битовая глубина : 16 бит
Метод сжатия : С потерями
Размер потока : 295 Мбайт (2%)
Заголовок : Парадиз-ВC
Язык : Russian
Default : Нет
Forced : Нет
Аудио #3
Идентификатор : 4
Формат : DTS
Формат/Информация : Digital Theater Systems
Профиль формата : MA / Core
Идентификатор кодека : A_DTS
Продолжительность : 1 ч. 47 м.
Вид битрейта : Переменный
Битрейт : 1561 Кбит/сек / 1510 Кбит/сек
Каналы : 6 каналов
Расположение каналов : Front: L C R, Side: L R, LFE
Частота : 48,0 КГц
Битовая глубина : 24 бит
Метод сжатия : Без потерь / Lossy
Заголовок : Original
Язык : English
Default : Нет
Forced : Нет
Текст #1
Идентификатор : 5
Формат : UTF-8
Идентификатор кодека : S_TEXT/UTF8
Идентификатор кодека/Информация : UTF-8 Plain Text
Заголовок : RUS / v1
Язык : Russian
Default : Нет
Forced : Нет
Текст #2
Идентификатор : 6
Формат : UTF-8
Идентификатор кодека : S_TEXT/UTF8
Идентификатор кодека/Информация : UTF-8 Plain Text
Заголовок : RUS / v2
Язык : Russian
Default : Нет
Forced : Нет
Текст #3
Идентификатор : 7
Формат : UTF-8
Идентификатор кодека : S_TEXT/UTF8
Идентификатор кодека/Информация : UTF-8 Plain Text
Заголовок : Original
Язык : English
Default : Нет
Forced : Нет
Меню
00:00:00.000 : en:
00:04:32.230 : en:
00:08:43.397 : en:
00:13:42.738 : en:
00:18:14.468 : en:
00:23:35.163 : en:
00:28:43.555 : en:
00:34:19.891 : en:
00:37:37.129 : en:
00:42:56.699 : en:
00:48:41.543 : en:
00:53:36.755 : en:
01:01:29.227 : en:
01:04:52.638 : en:
01:09:36.338 : en:
01:12:51.617 : en:
01:18:29.746 : en:
01:25:35.547 : en:
01:29:55.139 : en:
01:37:20.376 : en:
01:42:58.130 : en:

Скриншоты

Other forum [Profile] [PM]
Display posts from previous:    
Reply to topic

The time now is: Today 04:45

All times are GMT + 3 Hours



You cannot post new topics in this forum
You cannot reply to topics in this forum
You cannot edit your posts in this forum
You cannot delete your posts in this forum
You cannot vote in polls in this forum
You cannot attach files in this forum
You cannot download files in this forum