Today is a free download without charge Download

На исходе лета ( Рубен Мурадян ) (1979, Драма) DVDRip

Reply to topic
 
Author
Message

Витек1 ®

Gender:

Longevity: 6 years 3 months

Posts: 451

Location: Житомир

Торрент-статистика

Post 02-Mar-2013 23:27

[Quote]

На исходе лета - Оригинальное название: На исходе лета
Страна: СССР
Год выпуска: 1979
Жанр: Драма
Описание фильма:
Андрей Афанасьевич Веденеев был прекрасным учителем литературы. Теперь он состарился и вынужден переехать к сыну. Но сын пишет диссертацию, его жена — театральный критик, и они, не желая лишних хлопот, отправляют старика в дом престарелых. Однако внук, полюбивший деда и понявший всю жестокость происходящего, уходит от родителей и забирает старика к своей будущей жене.
Режисёр: Рубен Мурадян
Актёры: Леонид Оболенский, Владимир Борисов, Игорь Дмитриев, Марина Дюжева, Нина Веселовская, Вячеслав Шалевич, Антанас Габренас

Продолжительность: 01:10:27
Премьера (мир): 23 марта 1980

Качество видео: DVDRip
Размер кадра: 720x544
Видеокодек: XviD
Битрейт видео: ~ 2586 kbps
Аудиокодек: AC3 Dolby Digital, 2/0 (L,R) ch
Битрейт аудио: 192 kbps

MI

Общее
Полное имя : G:\раздачи\na_ishode_leta.avi
Формат : AVI
Формат/Информация : Audio Video Interleave
Размер файла : 1,37 Гбайт
Продолжительность : 1 ч. 10 м.
Общий поток : 2785 Кбит/сек
Программа кодирования : VirtualDubMod 1.5.4.1 (build 2178/release)
Библиотека кодирования : VirtualDubMod build 2178/release
Видео
Идентификатор : 0
Формат : MPEG-4 Visual
Профиль формата : Advanced [email protected]
Параметр BVOP формата : 1
Параметр QPel формата : Нет
Параметр GMC формата : Без точки перехода
Параметр матрицы формата : Выборочная
Идентификатор кодека : XVID
Идентификатор кодека/Подсказка : XviD
Продолжительность : 1 ч. 10 м.
Битрейт : 2586 Кбит/сек
Ширина : 720 пикселей
Высота : 544 пикселя
Соотношение сторон : 4:3
Частота кадров : 25,000 кадров/сек
Цветовое пространство : YUV
Субдискретизация насыщенности : 4:2:0
Битовая глубина : 8 бит
Тип развёртки : Прогрессивная
Метод сжатия : С потерями
Бит/(Пиксели*Кадры) : 0.264
Размер потока : 1,27 Гбайт (93%)
Библиотека кодирования : XviD 1.2.1 (UTC 2008-12-04)
Аудио
Идентификатор : 1
Формат : AC-3
Формат/Информация : Audio Coding 3
Расширение режима : CM (complete main)
Идентификатор кодека : 2000
Продолжительность : 1 ч. 10 м.
Вид битрейта : Постоянный
Битрейт : 192 Кбит/сек
Каналы : 2 канала
Расположение каналов : Front: L R
Частота : 48,0 КГц
Битовая глубина : 16 бит
Метод сжатия : С потерями
Задержка видео : 15 мс.
Размер потока : 96,5 Мбайт (7%)
Выравнивание : Разделение по промежуткам
Продолжительность промежутка : 96 мс. (2,40 видеокадра)
Время предзагрузки промежутка : 96 мс.

Скриншоты

         

_________________
Скачал сам, дай скачать другому!!!Не забудь сказать -
Other forum [Profile] [PM]
Display posts from previous:    
Reply to topic

The time now is: Today 05:55

All times are GMT + 3 Hours



You cannot post new topics in this forum
You cannot reply to topics in this forum
You cannot edit your posts in this forum
You cannot delete your posts in this forum
You cannot vote in polls in this forum
You cannot attach files in this forum
You cannot download files in this forum