Сегодня идет свободное скачивание без начисления Download

На исходе лета ( Рубен Мурадян ) (1979, Драма) DVDRip

Ответить на тему
 
Автор
Сообщение

Витек1 ®

Пол:

Стаж: 5 лет 8 месяцев

Сообщений: 454

Откуда: Житомир

Торрент-статистика

Пост 02-Мар-2013 23:27

[Цитировать]

На исходе лета - Оригинальное название: На исходе лета
Страна: СССР
Год выпуска: 1979
Жанр: Драма
Описание фильма:
Андрей Афанасьевич Веденеев был прекрасным учителем литературы. Теперь он состарился и вынужден переехать к сыну. Но сын пишет диссертацию, его жена — театральный критик, и они, не желая лишних хлопот, отправляют старика в дом престарелых. Однако внук, полюбивший деда и понявший всю жестокость происходящего, уходит от родителей и забирает старика к своей будущей жене.
Режисёр: Рубен Мурадян
Актёры: Леонид Оболенский, Владимир Борисов, Игорь Дмитриев, Марина Дюжева, Нина Веселовская, Вячеслав Шалевич, Антанас Габренас

Продолжительность: 01:10:27
Премьера (мир): 23 марта 1980

Качество видео: DVDRip
Размер кадра: 720x544
Видеокодек: XviD
Битрейт видео: ~ 2586 kbps
Аудиокодек: AC3 Dolby Digital, 2/0 (L,R) ch
Битрейт аудио: 192 kbps

MI

Общее
Полное имя : G:\раздачи\na_ishode_leta.avi
Формат : AVI
Формат/Информация : Audio Video Interleave
Размер файла : 1,37 Гбайт
Продолжительность : 1 ч. 10 м.
Общий поток : 2785 Кбит/сек
Программа кодирования : VirtualDubMod 1.5.4.1 (build 2178/release)
Библиотека кодирования : VirtualDubMod build 2178/release
Видео
Идентификатор : 0
Формат : MPEG-4 Visual
Профиль формата : Advanced [email protected]
Параметр BVOP формата : 1
Параметр QPel формата : Нет
Параметр GMC формата : Без точки перехода
Параметр матрицы формата : Выборочная
Идентификатор кодека : XVID
Идентификатор кодека/Подсказка : XviD
Продолжительность : 1 ч. 10 м.
Битрейт : 2586 Кбит/сек
Ширина : 720 пикселей
Высота : 544 пикселя
Соотношение сторон : 4:3
Частота кадров : 25,000 кадров/сек
Цветовое пространство : YUV
Субдискретизация насыщенности : 4:2:0
Битовая глубина : 8 бит
Тип развёртки : Прогрессивная
Метод сжатия : С потерями
Бит/(Пиксели*Кадры) : 0.264
Размер потока : 1,27 Гбайт (93%)
Библиотека кодирования : XviD 1.2.1 (UTC 2008-12-04)
Аудио
Идентификатор : 1
Формат : AC-3
Формат/Информация : Audio Coding 3
Расширение режима : CM (complete main)
Идентификатор кодека : 2000
Продолжительность : 1 ч. 10 м.
Вид битрейта : Постоянный
Битрейт : 192 Кбит/сек
Каналы : 2 канала
Расположение каналов : Front: L R
Частота : 48,0 КГц
Битовая глубина : 16 бит
Метод сжатия : С потерями
Задержка видео : 15 мс.
Размер потока : 96,5 Мбайт (7%)
Выравнивание : Разделение по промежуткам
Продолжительность промежутка : 96 мс. (2,40 видеокадра)
Время предзагрузки промежутка : 96 мс.

Скриншоты

         

_________________
Скачал сам, дай скачать другому!!!Не забудь сказать -
Вне форума [Профиль] [ЛС]
Показать сообщения:    
Ответить на тему

Текущее время: Сегодня 02:39

Часовой пояс: GMT + 3



Вы не можете начинать темы
Вы не можете отвечать на сообщения
Вы не можете редактировать свои сообщения
Вы не можете удалять свои сообщения
Вы не можете голосовать в опросах
Вы не можете прикреплять файлы к сообщениям
Вы не можете скачивать файлы