Today is a free download without charge Download

Темное зеркало / The Dark Mirror (Дмитрий Тёмкин / Dimitri Tiomkin) [1946, США, фильм-нуар, триллер, BDRip 720p] AVO (Визгунов) + Sub Eng + Original Eng

Reply to topic
 
Author
Message

Omen ®

Longevity: 8 years 5 months

Posts: 181087

Торрент-статистика

Post 02-Mar-2013 20:08

[Quote]

Темное зеркало / The Dark Mirror
Страна: США
Жанр: фильм-нуар, триллер
Год выпуска: 1946
Продолжительность: 01:25:38
Перевод: Авторский (одноголосый закадровый) Сергей Визгунов
Cубтитры: нет
Оригинальная аудиодорожка: английский-Режиссер: Дмитрий Тёмкин / Dimitri Tiomkin
В ролях: Оливия Де Хэвилленд, Лью Эйрз, Томас Митчелл, Ричард Лонг, Чарльз Эванс, Гарри Оуэн, Лела Блисс, Лестер Аллен, Жан Андрен, Родни Белл
Описание: Расследование убийства известного доктора приводит лейтенанта Стивенсона к Рут. Та имеет сестру — близнеца Терри. Психиатр, приглашенный Стивенсоном, пытается пролить свет на личности двух близняшек: не сошла ли с ума Рут? Терри считает, что это она убила доктора…
IMDb || КиноПоиск-Тип релиза: BDRip 720p [CRiSC]
Контейнер: MKV
Видео: H.264/AVC, 958x720 at 23.976 fps, ~8973 kbps
Аудио#1: Russian: 48 kHz, AC3, 2/0 (L,R) ch, 192.00 kbps |Авторский одноголосый закадровый, С.Визгунов|
Аудио#2: English: 48 kHz, DTS, 1.0 ch, 755.00 kbps
Формат субтитров: softsub (SRT)
Сэмпл

MediaInfo

x264 Info

x264 [info]: frame I:251 Avg QP:18.63 size:117622
x264 [info]: frame P:113542 Avg QP:21.70 size: 49034
x264 [info]: frame B:9399 Avg QP:23.67 size: 17638
encoded 123192 frames, 5.73 fps, 8972.43 kb/s
Format : Matroska
Format version : Version 2
File size : 5.94 GiB
Duration : 1h 25mn
Overall bit rate : 9 934 Kbps
Encoded date : UTC 2013-03-02 20:44:59
Writing application : mkvmerge v5.0.1 ('Es ist Sommer') built on Nov 6 2011 16:23:40
Writing library : libebml v1.2.2 + libmatroska v1.3.0
Video
ID : 1
Format : AVC
Format/Info : Advanced Video Codec
Format profile : [email protected]
Format settings, CABAC : Yes
Format settings, ReFrames : 12 frames
Codec ID : V_MPEG4/ISO/AVC
Duration : 1h 25mn
Bit rate : 8 789 Kbps
Width : 958 pixels
Height : 720 pixels
Display aspect ratio : 4:3
Frame rate : 23.976 fps
Color space : YUV
Chroma subsampling : 4:2:0
Bit depth : 8 bits
Scan type : Progressive
Bits/(Pixel*Frame) : 0.531
Stream size : 5.26 GiB (88%)
Title : The Dark Mirror (1946)
Language : English
Default : Yes
Forced : No
Color primaries : BT.709-5, BT.1361, IEC 61966-2-4, SMPTE RP177
Transfer characteristics : BT.709-5, BT.1361
Matrix coefficients : BT.709-5, BT.1361, IEC 61966-2-4 709, SMPTE RP177
Audio #1
ID : 2
Format : AC-3
Format/Info : Audio Coding 3
Format profile : Dolby Digital
Mode extension : CM (complete main)
Codec ID : A_AC3
Duration : 1h 25mn
Bit rate mode : Constant
Bit rate : 192 Kbps
Channel(s) : 2 channels
Channel positions : Front: L R
Sampling rate : 48.0 KHz
Bit depth : 16 bits
Compression mode : Lossy
Stream size : 118 MiB (2%)
Language : Russian
Default : Yes
Forced : No
Audio #2
ID : 3
Format : DTS
Format/Info : Digital Theater Systems
Codec ID : A_DTS
Duration : 1h 25mn
Bit rate mode : Constant
Bit rate : 755 Kbps
Channel(s) : 1 channel
Channel positions : Front: C
Sampling rate : 48.0 KHz
Bit depth : 16 bits
Compression mode : Lossy
Stream size : 462 MiB (8%)
Language : English
Default : No
Forced : No
Menu
00:00:00.000 : en:00:00:00.000
00:11:00.410 : en:00:11:00.410
00:19:31.670 : en:00:19:31.670
00:29:46.284 : en:00:29:46.284
00:41:32.657 : en:00:41:32.657
00:54:21.175 : en:00:54:21.175
01:01:27.350 : en:01:01:27.350
01:09:30.083 : en:01:09:30.083

Скриншоты

CRiSC vs Source
Other forum [Profile] [PM]
Display posts from previous:    
Reply to topic

The time now is: Today 05:52

All times are GMT + 3 Hours



You cannot post new topics in this forum
You cannot reply to topics in this forum
You cannot edit your posts in this forum
You cannot delete your posts in this forum
You cannot vote in polls in this forum
You cannot attach files in this forum
You cannot download files in this forum