Today is a free download without charge Download

Музыка внутри / Music Within (Стивен Савалич / Steven Sawalich) [2007 г., США, комедия, мелодрама, драма, биография, BDRip 720p] DVO + Original (Eng) + Sub (Eng)

Reply to topic
 
Author
Message

Omen ®

Longevity: 8 years 5 months

Posts: 181087

Торрент-статистика

Post 02-Mar-2013 20:08

[Quote]

Музыка внутри / Music Within

-
-Страна: США
Студия: Articulus Entertainment
Жанр: комедия, мелодрама, драма, биография
Год выпуска: 2007
Продолжительность: 01:33:50--Перевод: Профессиональный (двухголосый закадровый)
Cубтитры: английские
Оригинальная аудиодорожка: английский--Режиссер: Стивен Савалич / Steven Sawalich
В ролях: Рон Ливингстон, Мелисса Джордж, Майкл Шин, Юл Васкез, Ребекка Де Морнэй, Гектор Элизондо, Лесли Нильсен, Пол Майкл, Клинт Юнг--Описание: Правдивая история Ричарда Пиментэля (Рон Ливингстон), блестящего общественного спикера с трудным прошлым, который возвращается из Вьетнама потеряв слух, и находит для себя новую цель — борьбу за права ветеранов и инвалидов.--imdb | kinopoisk | Сэмпл--Тип релиза: BDRip 720p [Music Within 2007 720p BluRay x264 EbP]
Контейнер: MKV
b]Видео: MPEG-4 AVC / 9672 kbps / 1280x690 / 23,976 fps / 1,85:1 / High Profile 4.1
Аудио 1: AC3 / 5.1 / 48 kHz / 448 kbps / 16 bits |DVO|
Аудио 2: AC3 / 5.1 / 48 kHz / 640 kbps / 16 bits |original|
Формат субтитров: softsub [SRT]

MediaInfo

Общее
Уникальный идентификатор : 171740769725262086205503748832679352555 (0x813411B119E6C34CBC7E582CD6B2D8EB)
Полное имя : G:\HD\Музыка внутри.2007.BDRip.(720p).mkv
Формат : Matroska
Версия формата : Version 2
Размер файла : 7,20 Гбайт
Продолжительность : 1 ч. 33 м.
Общий поток : 11,0 Мбит/сек
Дата кодирования : UTC 2013-03-01 06:31:11
Программа кодирования : mkvmerge v5.8.0 ('No Sleep / Pillow') built on Sep 2 2012 15:37:04
Библиотека кодирования : libebml v1.2.3 + libmatroska v1.3.0
Видео
Идентификатор : 1
Формат : AVC
Формат/Информация : Advanced Video Codec
Профиль формата : [email protected]
Параметр CABAC формата : Да
Параметр ReFrames формата : 9 кадров
Идентификатор кодека : V_MPEG4/ISO/AVC
Продолжительность : 1 ч. 33 м.
Битрейт : 9672 Кбит/сек
Ширина : 1280 пикселей
Высота : 690 пикселей
Соотношение сторон : 1,85:1
Режим частоты кадров : Постоянный
Частота кадров : 23,976 кадра/сек
Цветовое пространство : YUV
Субдискретизация насыщенности : 4:2:0
Битовая глубина : 8 бит
Тип развёртки : Прогрессивная
Бит/(Пиксели*Кадры) : 0.457
Размер потока : 6,34 Гбайт (88%)
Заголовок : EbP
Библиотека кодирования : x264 core 129 r2245 bc13772
Настройки программы : cabac=1 / ref=9 / deblock=1:-3:-3 / analyse=0x3:0x113 / me=tesa / subme=9 / psy=1 / psy_rd=1.05:0.00 / mixed_ref=1 / me_range=16 / chroma_me=1 / trellis=2 / 8x8dct=1 / cqm=0 / deadzone=21,11 / fast_pskip=0 / chroma_qp_offset=-2 / threads=12 / lookahead_threads=2 / sliced_threads=0 / nr=0 / decimate=0 / interlaced=0 / bluray_compat=0 / constrained_intra=0 / bframes=7 / b_pyramid=2 / b_adapt=2 / b_bias=0 / direct=3 / weightb=1 / open_gop=0 / weightp=2 / keyint=250 / keyint_min=23 / scenecut=40 / intra_refresh=0 / rc=crf / mbtree=0 / crf=16.5 / qcomp=0.60 / qpmin=0 / qpmax=69 / qpstep=4 / ip_ratio=1.40 / pb_ratio=1.30 / aq=1:0.65
Язык : English
Default : Да
Forced : Нет
Коэффициенты матрицы : BT.709
Аудио #1
Идентификатор : 2
Формат : AC-3
Формат/Информация : Audio Coding 3
Расширение режима : CM (complete main)
Параметр Endianness формата : Big
Идентификатор кодека : A_AC3
Продолжительность : 1 ч. 33 м.
Вид битрейта : Постоянный
Битрейт : 448 Кбит/сек
Каналы : 6 каналов
Расположение каналов : Front: L C R, Side: L R, LFE
Частота : 48,0 КГц
Битовая глубина : 16 бит
Метод сжатия : С потерями
Размер потока : 301 Мбайт (4%)
Заголовок : DVO
Язык : Russian
Default : Да
Forced : Нет
Аудио #2
Идентификатор : 3
Формат : AC-3
Формат/Информация : Audio Coding 3
Расширение режима : CM (complete main)
Параметр Endianness формата : Big
Идентификатор кодека : A_AC3
Продолжительность : 1 ч. 33 м.
Вид битрейта : Постоянный
Битрейт : 640 Кбит/сек
Каналы : 6 каналов
Расположение каналов : Front: L C R, Side: L R, LFE
Частота : 48,0 КГц
Битовая глубина : 16 бит
Метод сжатия : С потерями
Размер потока : 430 Мбайт (6%)
Язык : English
Default : Нет
Forced : Нет
Текст
Идентификатор : 4
Формат : UTF-8
Идентификатор кодека : S_TEXT/UTF8
Идентификатор кодека/Информация : UTF-8 Plain Text
Заголовок : English
Язык : English
Default : Нет
Forced : Нет
Меню
00:00:00.000 : en:00:00:00.000
00:09:18.308 : en:00:09:18.308
00:20:12.878 : en:00:20:12.878
00:29:53.291 : en:00:29:53.291
00:40:24.714 : en:00:40:24.714
00:50:07.504 : en:00:50:07.504
01:00:26.748 : en:01:00:26.748
01:11:32.872 : en:01:11:32.872
01:22:16.390 : en:01:22:16.390

Скриншоты


Other forum [Profile] [PM]
Similar theme
Forum Topic Author Torrent Replies Last Post
./templates/default/images/folder_dl.gif Развлекательные телепередачи и шоу, приколы и юмор Музыкальный концерт Павла Воли. Новое [эфир от 01.01] (2013) SATRip Omen
0 | 1

0 | 722

0

2013-01-28 04:33
Omen Latest
Display posts from previous:    
Reply to topic

The time now is: Today 09:49

All times are GMT + 3 Hours



You cannot post new topics in this forum
You cannot reply to topics in this forum
You cannot edit your posts in this forum
You cannot delete your posts in this forum
You cannot vote in polls in this forum
You cannot attach files in this forum
You cannot download files in this forum