Today is a free download without charge Download

Винтик и Шпунтик - Весёлые мастера (Пётр Носов) [1960 г., короткометражный мультфильм, DVB]

Reply to topic
 
Author
Message

Omen ®

Longevity: 8 years 11 months

Posts: 181086

Торрент-статистика

Post 02-Mar-2013 20:08

[Quote]

Винтик и Шпунтик - Весёлые мастера-Год выпуска: 1960
Жанр: короткометражный мультфильм
Продолжительность: 00:18:59
Режиссер: Пётр Носов

Описание: Экранизация современной сказки Н.Носова о человечках-инструментах Винтике и Шпунтике, которые умело решают разные технические трудности. По мотивам книги Н.Носова "Веселые мастера".
Качество: DVB
Формат: TS
Видео: 720x576 (4:3) @ 786x576, 25.000 fps, AVC, ~3556 Kbps, 0.343 bits/pixel
Аудио: 48.0 KHz, MPEG-1 Audio layer 2, 2 ch, 256 Kbps

Скриншоты

MediaInfo

GeneralID : 1 (0x1)Complete name : Винтик и Шпунтик весёлые мастера.CTC 2.tsFormat : MPEG-TSFile size : 545 MiBDuration : 18mn 59sOverall bit rate mode : VariableOverall bit rate : 4 013 Kbps
VideoID : 1802 (0x70A)Menu ID : 1 (0x1)Format : AVCFormat/Info : Advanced Video CodecFormat profile : [email protected] settings, CABAC : YesFormat settings, ReFrames : 3 framesFormat settings, GOP : M=4, N=28Codec ID : 27Duration : 18mn 59sBit rate : 3 556 KbpsWidth : 720 pixelsHeight : 576 pixelsDisplay aspect ratio : 4:3Frame rate : 25.000 fpsStandard : ComponentColor space : YUVChroma subsampling : 4:2:0Bit depth : 8 bitsScan type : InterlacedScan order : Top Field FirstBits/(Pixel*Frame) : 0.343Stream size : 483 MiB (89%)Color primaries : BT.601 PALTransfer characteristics : BT.470 System B, BT.470 System GMatrix coefficients : BT.601
AudioID : 2802 (0xAF2)Menu ID : 1 (0x1)Format : MPEG AudioFormat version : Version 1Format profile : Layer 2Codec ID : 3Duration : 18mn 58sBit rate mode : ConstantBit rate : 256 KbpsChannel(s) : 2 channelsSampling rate : 48.0 KHzCompression mode : LossyStream size : 34.8 MiB (6%)Language : English
Other forum [Profile] [PM]
Display posts from previous:    
Reply to topic

The time now is: Today 01:44

All times are GMT + 3 Hours



You cannot post new topics in this forum
You cannot reply to topics in this forum
You cannot edit your posts in this forum
You cannot delete your posts in this forum
You cannot vote in polls in this forum
You cannot attach files in this forum
You cannot download files in this forum