Сегодня идет свободное скачивание без начисления Download

И ты увидишь небо (1978) DVDRip

Ответить на тему
 
Автор
Сообщение

UndegraundMen ®

Стаж: 5 лет 9 месяцев

Сообщений: 25860

Торрент-статистика

Пост 02-Мар-2013 16:59

[Цитировать]

-И ты увидишь небо (1978) DVDRip- Оригинальное название: И ты увидишь небо
Год выпуска: 1978
Жанр: Драма, военный
Описание фильма:
Август 1944 года. На командном пункте авиационного полка легендарный летчик, Герой Советского Союза — генерал Н. П. Каманин. Ему необходимо срочно доставить пакет на плацдарм, где в окружении немцев героически сражается одна из частей Красной армии. Но все самолеты из эскадрильи связи разбиты, летчики погибли, а перед ним стоит его 15-тилетний сын, готовый вылететь туда на последнем исправном самолете…
Режисёр: Георгий Кузнецов
Актёры: Владимир Широков, Александр Пороховщиков, Маргарита Володина, Михаил Яковенко, Геннадий Корольков, Виктор Шульгин, Виктор Перевалов, Валерий Величко, Владимир Тюрин

Продолжительность: 01:04:17

Качество видео: DVDRip
Размер кадра: 704x528
Видеокодек: DivX Codec 5
Битрейт видео: ~2224 kbps
Аудиокодек: AC3 Dolby Digital, 2/0 (L,R) ch
Битрейт аудио: 192 kbps

MI

Общее
Полное имя : C:\Users\1\Downloads\I_ti_uvidisch_nebo.avi
Формат : AVI
Формат/Информация : Audio Video Interleave
Размер файла : 1,09 Гбайт
Продолжительность : 1 ч. 4 м.
Общий поток : 2425 Кбит/сек
Программа кодирования : VirtualDubModRus 1.5.10.2 (build 2542/release)
Библиотека кодирования : VirtualDubMod build 2542/release
Видео
Идентификатор : 0
Формат : MPEG-4 Visual
Параметр BVOP формата : 1
Параметр QPel формата : Нет
Параметр GMC формата : Без точки перехода
Параметр матрицы формата : Default (H.263)
Режим смешивания : Сжатый битовый поток
Идентификатор кодека : DX50
Идентификатор кодека/Подсказка : DivX 5
Продолжительность : 1 ч. 4 м.
Битрейт : 2224 Кбит/сек
Ширина : 704 пикселя
Высота : 528 пикселей
Соотношение сторон : 4:3
Частота кадров : 25,000 кадров/сек
Цветовое пространство : YUV
Субдискретизация насыщенности : 4:2:0
Битовая глубина : 8 бит
Тип развёртки : Прогрессивная
Метод сжатия : С потерями
Бит/(Пиксели*Кадры) : 0.239
Размер потока : 1023 Мбайт (92%)
Библиотека кодирования : DivX 6.8.5 (UTC 2009-08-20)
Аудио
Идентификатор : 1
Формат : AC-3
Формат/Информация : Audio Coding 3
Расширение режима : CM (complete main)
Идентификатор кодека : 2000
Продолжительность : 1 ч. 4 м.
Вид битрейта : Постоянный
Битрейт : 192 Кбит/сек
Каналы : 2 канала
Расположение каналов : Front: L R
Частота : 48,0 КГц
Битовая глубина : 16 бит
Метод сжатия : С потерями
Размер потока : 88,3 Мбайт (8%)
Выравнивание : Соединение по промежуткам
Продолжительность промежутка : 40 мс. (1,00 видеокадр)
Время предзагрузки промежутка : 512 мс.
Скриншоты:
       
       
Вне форума [Профиль] [ЛС]
Показать сообщения:    
Ответить на тему

Текущее время: Сегодня 15:48

Часовой пояс: GMT + 3



Вы не можете начинать темы
Вы не можете отвечать на сообщения
Вы не можете редактировать свои сообщения
Вы не можете удалять свои сообщения
Вы не можете голосовать в опросах
Вы не можете прикреплять файлы к сообщениям
Вы не можете скачивать файлы