Today is a free download without charge Download

Продавщица фиалок / La violetera (1958) [H.264] DVDRip

Reply to topic
 
Author
Message

UndegraundMen ®

Longevity: 8 years 8 months

Posts: 25145

Торрент-статистика

Post 02-Mar-2013 16:41

[Quote]

-Продавщица фиалок / La violetera (1958) [H.264] DVDRip- Русское название: Продавщица фиалок
Оригинальное название: La violetera
Год выпуска: 1958
Жанр: Мьюзикл, Драма, Мелодрама
Страна: Испания, Италия
Производство: Producciones Benito Perojo S.A., Trevi Cinematografica, Vic Film
Описание фильма:
Начало XX века. Соледад — симпатичная продавщица фиалок и начинающая певица небольшого варьете, знакомится у большого театра Мадрида с Фернандо — влиятельным джентльменом.
Безумное чувство охватывает молодых людей, но их брак невозможен из-за разного социального статуса, Соледад доверяют исполнять одну из главных партий варьете, ее чарующий голос покоряет сердца слушателей и она становится самой популярной певицей Испании. Ее гастроли и концерты проходят с аншлагами во всем мире. Со временем она стала богатой, но по-прежнему она одинока и только встреча с Фернандо может успокоить ее сердце.
Режиссер: Луис Сесар Амадори
Актеры: Сара Монтьель, Раф Валлоне, Франк Виллар, Томас Бланко, Пастор Серрадор, Тони Солер, Феликс Фернандес, Робер Пизани, Чарльз Фоусет, Аврора Гарсия Алонсо
Продолжительность: 01:47:12
Перевод: Многоголосый закадровый
Субтитры: Отсутствуют

Дата мировой премьеры: 6 апреля 1958
Дата выхода DVD релиза: 8 июля 2010, «Cinema Prestige»
Видеокодек: MPEG-4 AVC/H.264
Битрейт видео: ~2200 Кбит/сек
Размер кадра: 720x528
Качество видео: DVDRip
Аудиокодек: AC3 2.0
Битрейт аудио: 192 kbps

MediaInfo:

Общее
Уникальный идентификатор : 215242331775794719850226941814422453839 (0xA1EE2A4AFC0BE3B18CCA06CB38BD3E4F)
Полное имя : D:\Downloads\Продавщица фиалок.mkv
Формат : Matroska
Версия формата : Version 2
Размер файла : 1,79 Гбайт
Продолжительность : 1 ч. 47 м.
Общий поток : 2393 Кбит/сек
Дата кодирования : UTC 2013-02-28 20:31:31
Программа кодирования : mkvmerge v5.7.0 ('The Whirlwind') built on Jul 29 2012 15:12:35
Библиотека кодирования : libebml v1.2.3 + libmatroska v1.3.0
Видео
Идентификатор : 1
Формат : AVC
Формат/Информация : Advanced Video Codec
Профиль формата : [url=mailto:[email protected]][email protected][/url]
Параметр CABAC формата : Да
Параметр ReFrames формата : 8 кадров
Режим смешивания : Header stripping
Идентификатор кодека : V_MPEG4/ISO/AVC
Продолжительность : 1 ч. 47 м.
Битрейт : 2200 Кбит/сек
Ширина : 720 пикселей
Высота : 528 пикселей
Соотношение сторон : 4:3
Режим частоты кадров : Постоянный
Частота кадров : 25,000 кадров/сек
Цветовое пространство : YUV
Субдискретизация насыщенности : 4:2:0
Битовая глубина : 8 бит
Тип развёртки : Прогрессивная
Бит/(Пиксели*Кадры) : 0.231
Размер потока : 1,61 Гбайт (90%)
Заголовок : La violetera
Библиотека кодирования : x264 core 129 r2230 1cffe9f
Настройки программы : cabac=1 / ref=8 / deblock=1:-1:-1 / analyse=0x3:0x133 / me=umh / subme=9 / psy=1 / psy_rd=1.00:0.15 / mixed_ref=1 / me_range=16 / chroma_me=1 / trellis=2 / 8x8dct=1 / cqm=0 / deadzone=21,11 / fast_pskip=1 / chroma_qp_offset=-3 / threads=3 / lookahead_threads=1 / sliced_threads=0 / nr=0 / decimate=1 / interlaced=0 / bluray_compat=0 / constrained_intra=0 / bframes=3 / b_pyramid=2 / b_adapt=2 / b_bias=0 / direct=3 / weightb=1 / open_gop=0 / weightp=2 / keyint=250 / keyint_min=25 / scenecut=40 / intra_refresh=0 / rc_lookahead=60 / rc=2pass / mbtree=1 / bitrate=2200 / ratetol=1.0 / qcomp=0.60 / qpmin=10 / qpmax=51 / qpstep=4 / cplxblur=20.0 / qblur=0.5 / ip_ratio=1.40 / aq=1:1.00
Язык : Spanish
Default : Да
Forced : Нет
Аудио
Идентификатор : 2
Формат : AC-3
Формат/Информация : Audio Coding 3
Расширение режима : CM (complete main)
Параметр Endianness формата : Big
Режим смешивания : Header stripping
Идентификатор кодека : A_AC3
Продолжительность : 1 ч. 47 м.
Вид битрейта : Постоянный
Битрейт : 192 Кбит/сек
Каналы : 2 канала
Расположение каналов : Front: L R
Частота : 48,0 КГц
Битовая глубина : 16 бит
Метод сжатия : С потерями
Размер потока : 147 Мбайт (8%)
Заголовок : Многоголосый закадровый
Язык : Russian
Default : Да
Forced : Нет
Скриншоты:                    Время раздачи: с 12:00 до 24:00 по Москве (выходные круглосуточно), до 10 скачавших
Other forum [Profile] [PM]
Display posts from previous:    
Reply to topic

The time now is: Today 14:49

All times are GMT + 3 Hours



You cannot post new topics in this forum
You cannot reply to topics in this forum
You cannot edit your posts in this forum
You cannot delete your posts in this forum
You cannot vote in polls in this forum
You cannot attach files in this forum
You cannot download files in this forum