Today is a free download without charge Download

Плавучий дом / Houseboat (1958) [H.264] DVDRip

Reply to topic
 
Author
Message

UndegraundMen ®

Longevity: 8 years 8 months

Posts: 25145

Торрент-статистика

Post 02-Mar-2013 16:41

[Quote]

-Плавучий дом / Houseboat (1958) [H.264] DVDRip- Русское название: Плавучий дом
Оригинальное название: Houseboat
Год выпуска: 1958
Жанр: Драма, Мелодрама, Комедия, Семейный
Страна: США
Производство: Paramount Pictures
Описание фильма:
Очаровательная комедия о Нью-йоркском адвокате, одиноком отце трех шаловливых детишек. Они решают, что им нужна мама, а папе жена, поэтому убеждают его взять младшенькому Чарльзу очаровательную итальянскую воспитательницу. Папа неожиданно влюбляется в красавицу, которая оказывается не простой девушкой, а дочерью итальянского дипломата.
Режиссер: Мелвилл Шэвелсон
Сценарий: Мелвилл Шэвелсон, Джек Роуз, Бетси Дрэйк
Продюсер: Джек Роуз
Актеры: Кэри Грант, Софи Лорен, Марта Хайер, Гарри Гуардино, Эдуардо Чианнелли, Мюррэй Хэмилтон, Мими Гибсон, Пол Петерсен, Чарльз Херберт, Мэдж Кеннеди
Продолжительность: 01:49:40
Перевод: Многоголосый закадровый
Субтитры: Отсутствуют

Дата мировой премьеры: 19 ноября 1958
Видеокодек: MPEG-4 AVC/H.264
Битрейт видео: ~2100 Кбит/сек
Размер кадра: 720x400
Качество видео: DVDRip
Аудиокодек: AC3 2.0
Битрейт аудио: 192 kbps

Награды:

Оскар, 1959 год
Номинации (2):
Лучший оригинальный сценарий
Лучшая песня — «Almost in Your Arms (Love Song from Houseboat)»
Золотой глобус, 1959год
Номинации (1):
Лучшая мужская роль второго плана (Гарри Гуардино)

MediaInfo:

Общее
Уникальный идентификатор : 186601336792833802555286333808161052346 (0x8C621C37535615DE8145DDA8D2ABD6BA)
Полное имя : D:\Downloads\Плавучий дом.mkv
Формат : Matroska
Версия формата : Version 2
Размер файла : 1,76 Гбайт
Продолжительность : 1 ч. 49 м.
Общий поток : 2293 Кбит/сек
Дата кодирования : UTC 2013-03-01 22:26:34
Программа кодирования : mkvmerge v5.7.0 ('The Whirlwind') built on Jul 29 2012 15:12:35
Библиотека кодирования : libebml v1.2.3 + libmatroska v1.3.0
Видео
Идентификатор : 1
Формат : AVC
Формат/Информация : Advanced Video Codec
Профиль формата : [url=mailto:[email protected]][email protected][/url]
Параметр CABAC формата : Да
Параметр ReFrames формата : 8 кадров
Режим смешивания : Header stripping
Идентификатор кодека : V_MPEG4/ISO/AVC
Продолжительность : 1 ч. 49 м.
Битрейт : 2100 Кбит/сек
Ширина : 720 пикселей
Высота : 400 пикселей
Соотношение сторон : 16:9
Режим частоты кадров : Постоянный
Частота кадров : 23,976 кадра/сек
Цветовое пространство : YUV
Субдискретизация насыщенности : 4:2:0
Битовая глубина : 8 бит
Тип развёртки : Прогрессивная
Бит/(Пиксели*Кадры) : 0.304
Размер потока : 1,57 Гбайт (90%)
Заголовок : Houseboat
Библиотека кодирования : x264 core 129 r2230 1cffe9f
Настройки программы : cabac=1 / ref=8 / deblock=1:-1:-1 / analyse=0x3:0x133 / me=umh / subme=9 / psy=1 / psy_rd=1.00:0.15 / mixed_ref=1 / me_range=16 / chroma_me=1 / trellis=2 / 8x8dct=1 / cqm=0 / deadzone=21,11 / fast_pskip=1 / chroma_qp_offset=-3 / threads=3 / lookahead_threads=1 / sliced_threads=0 / nr=0 / decimate=1 / interlaced=0 / bluray_compat=0 / constrained_intra=0 / bframes=3 / b_pyramid=2 / b_adapt=2 / b_bias=0 / direct=3 / weightb=1 / open_gop=0 / weightp=2 / keyint=240 / keyint_min=23 / scenecut=40 / intra_refresh=0 / rc_lookahead=60 / rc=2pass / mbtree=1 / bitrate=2100 / ratetol=1.0 / qcomp=0.60 / qpmin=10 / qpmax=51 / qpstep=4 / cplxblur=20.0 / qblur=0.5 / ip_ratio=1.40 / aq=1:1.00
Язык : English
Default : Да
Forced : Нет
Аудио
Идентификатор : 2
Формат : AC-3
Формат/Информация : Audio Coding 3
Расширение режима : CM (complete main)
Параметр Endianness формата : Big
Режим смешивания : Header stripping
Идентификатор кодека : A_AC3
Продолжительность : 1 ч. 49 м.
Вид битрейта : Постоянный
Битрейт : 192 Кбит/сек
Каналы : 2 канала
Расположение каналов : Front: L R
Частота : 48,0 КГц
Битовая глубина : 16 бит
Метод сжатия : С потерями
Размер потока : 151 Мбайт (8%)
Заголовок : Профессиональный, многоголосый
Язык : Russian
Default : Да
Forced : Нет
Скриншоты:                    Время раздачи: с 12:00 до 24:00 по Москве (выходные круглосуточно), до 10 скачавших
Other forum [Profile] [PM]
Display posts from previous:    
Reply to topic

The time now is: Today 13:53

All times are GMT + 3 Hours



You cannot post new topics in this forum
You cannot reply to topics in this forum
You cannot edit your posts in this forum
You cannot delete your posts in this forum
You cannot vote in polls in this forum
You cannot attach files in this forum
You cannot download files in this forum