Сегодня идет свободное скачивание без начисления Download

Небесный тихоход (1945) HDRip [Реставрация КП]

Ответить на тему
 
Автор
Сообщение

UndegraundMen ®

Стаж: 5 лет 9 месяцев

Сообщений: 25860

Торрент-статистика

Пост 02-Мар-2013 16:41

[Цитировать]

-Небесный тихоход (1945) HDRip- Русское название: Небесный тихоход (1945)
Год выпуска: 1945
Производство: СССР, Ленфильм
Жанр: Комедия, воеенный
Режиссер: Семен Тимошенко
Сценарий: Семен Тимошенко
Актеры: Николай Крючков, Василий Меркурьев, Василий Нещипленко, Алла Парфаньяк, Людмила Глазова, Тамара Алешина, Фаина Раневская, Константин Скоробогатов, Анатолий Королькевич, Анатолий Алексеев, Манефа Соболевская, Владимир Таскин, Леонид Кострица, Яков Гудкин
Описание фильма:
Три друга, летчики-офицеры, поклялись не любить до конца войны. Однако военная служба познакомила их с летчицами женской эскадрильи. И друзья один за другим начали сдавать свои позиции.
После тяжелого ранения летчик Булочкин вынужден летать не на скоростном истребителе, а на «тихоходе» У-2. Привыкший к опасностям Булочкин с трудом привыкает к спокойной жизни в эскадрилье, где большинство летчиков — девушки. Но вскоре становится ясно, что на войне важны и «тихоходы».- -Продолжительность: 01:23:22
Качество видео: HDRip
Видеокодек: XviD
Битрейт видео: 1113 Кбит/сек
Размер кадра: 688x528
Аудио : Русский, MP3, 2 ch, 128 Кбит/сек

Доп. информация

Полная реставрация изображения и звука. Исходные киноматериалы подготовлены Госфильмофондом России. Покадровая цифровая реставрация изображения, ремастеринг звука и авторинг проведены объединением «Крупный план»

Знаете ли вы, что...

  • В сценах празднования встречи лётчиков и лётчиц снимались артисты танцевального коллектива под руководством Аркадия Обранта. Он возник незадолго до войны в Ленинградском Дворце пионеров, был воссоздан в годы войны, провёл около трех тысяч выступлений в воинских частях и в осаждённом Ленинграде.
  • В самом начале картины можно увидеть разрушенный Большой дворец Петергофа — так он выглядел в 1945 году до начала всех восстановительных работ.
  • Фильм восстановлен на киностудии «Ленфильм» в 1970 году.
  • После съемок Крючков развелся со своей первой женой, и женился на актрисе Алле Парфаньяк, исполнявшей главную роль. С ней он прожил 10 лет.

MediaInfo

Код:
Общее
Полное имя                               : E:\Раздачи\Видео\Небесный тихоход (1945) HDRip.avi
Формат                                   : AVI
Формат/Информация                        : Audio Video Interleave
Размер файла                             : 746 Мбайт
Продолжительность                        : 1 ч. 23 м.
Общий поток                              : 1251 Кбит/сек
Программа кодирования                    : VirtualDubMod 1.5.10.2 (build 2540/release)
Библиотека кодирования                   : VirtualDubMod build 2540/release
Видео
Идентификатор                            : 0
Формат                                   : MPEG-4 Visual
Профиль формата                          : Advanced [email protected]
Параметр BVOP формата                    : 1
Параметр QPel формата                    : Нет
Параметр GMC формата                     : Без точки перехода
Параметр матрицы формата                 : Выборочная
Идентификатор кодека                     : XVID
Идентификатор кодека/Подсказка           : XviD
Продолжительность                        : 1 ч. 23 м.
Битрейт                                  : 1113 Кбит/сек
Ширина                                   : 688 пикселей
Высота                                   : 528 пикселей
Соотношение сторон                       : 4:3
Частота кадров                           : 23,976 кадра/сек
Цветовое пространство                    : YUV
Субдискретизация насыщенности            : 4:2:0
Битовая глубина                          : 8 бит
Тип развёртки                            : Прогрессивная
Метод сжатия                             : С потерями
Бит/(Пиксели*Кадры)                      : 0.128
Размер потока                            : 664 Мбайт (89%)
Библиотека кодирования                   : XviD 1.2.1 (UTC 2008-12-04)
Аудио
Идентификатор                            : 1
Формат                                   : MPEG Audio
Версия формата                           : Version 1
Профиль формата                          : Layer 3
Идентификатор кодека                     : 55
Идентификатор кодека/Подсказка           : MP3
Продолжительность                        : 1 ч. 23 м.
Вид битрейта                             : Постоянный
Битрейт                                  : 128 Кбит/сек
Каналы                                   : 2 канала
Частота                                  : 48,0 КГц
Метод сжатия                             : С потерями
Размер потока                            : 76,3 Мбайт (10%)
Выравнивание                             : Соединение по промежуткам
Продолжительность промежутка             : 42  мс. (1,00 видеокадр)
Время предзагрузки промежутка            : 504  мс.
Библиотека кодирования                   : LAME3.98r
Настройки программы                      : -m s -V 4 -q 2 -lowpass 17 -b 128
Скриншоты:
         
         -
Вне форума [Профиль] [ЛС]
Показать сообщения:    
Ответить на тему

Текущее время: Сегодня 16:10

Часовой пояс: GMT + 3



Вы не можете начинать темы
Вы не можете отвечать на сообщения
Вы не можете редактировать свои сообщения
Вы не можете удалять свои сообщения
Вы не можете голосовать в опросах
Вы не можете прикреплять файлы к сообщениям
Вы не можете скачивать файлы