Сегодня идет свободное скачивание без начисления Download

Максим Перепелица (1955) DVDRip

Ответить на тему
 
Автор
Сообщение

UndegraundMen ®

Стаж: 5 лет 8 месяцев

Сообщений: 25860

Торрент-статистика

Пост 02-Мар-2013 16:41

[Цитировать]

-Максим Перепелица (1955) DVDRip- Русское название: Максим Перепелица
Год выпуска: 1955
Производство: СССР, Ленфильм
Жанр: Комедия
Режиссер: Анатолий Граник
Сценарий: Иван Стаднюк
Актеры: Леонид Быков, Василий Фушич, Георгий Вицин, Николай Яковченко, Александр Борисов, Георгий Осипенко, Кирилл Лавров, Татьяна Пельтцер, Людмила Сосюра, Таисия Литвиненко, Константин Сорокин, Нина Тамарова, Павел Усовниченко, Александр Степанов, Александр Суснин, Сергей Сибель, Раднэр Муратов, Елизавета Уварова, Борис Лескин, Лидия Федосеева-Шукшина, Борис Аракелов, Алексей Бахарь
Описание фильма:
Веселого парня, деревенского шутника и балагура Максима Перепелицу призывают на службу в армию. Но и там, пытаясь избежать трудностей армейской жизни, он пытается ловчить. Однако открытый добродушный нрав, настоящий характер заставляют парня переосмыслить происходящее с ним. На побывку в родное село, где его дожидается любимая, Максим приезжает в звании младшего сержанта.- -Продолжительность: 01:27:18
Качество видео: DVDRip
Видеокодек: XviD
Битрейт видео: 1055 Кбит/сек
Размер кадра: 640x480
Аудио : Русский, MP3, 2 ch, 128 Кбит/сек

Знаете ли вы, что...

  • Картина поставлена по одноименной повести И. Стаднюка.
  • В картине впервые появилась на экране Лидия Федосеева-Шукшина. Также одну из первых своих ролей сыграл Кирилл Лавров.
  • Фильм стал операторским дебютом для Дмитрия Месхиева-старшего, отца известного кинорежиссера.
  • Именно в этом фильме было показано зрителю новое разработанное оружие автомат Ак-47.
  • В фильме впервые прозвучала песня «В путь» (другое название «Солдатская песня») В. Соловьёва-Седого на слова Михаила Дудина.

MediaInfo

Код:
Общее
Полное имя                               : E:\Раздачи\Видео\Максим Перепелица (1955) DVDRip.avi
Формат                                   : AVI
Формат/Информация                        : Audio Video Interleave
Размер файла                             : 745 Мбайт
Продолжительность                        : 1 ч. 27 м.
Общий поток                              : 1193 Кбит/сек
Программа кодирования                    : VirtualDubModRus 1.5.10.2 (build 2542/release)
Библиотека кодирования                   : VirtualDubMod build 2542/release
Видео
Идентификатор                            : 0
Формат                                   : MPEG-4 Visual
Профиль формата                          : Advanced [email protected]
Параметр BVOP формата                    : 2
Параметр QPel формата                    : Нет
Параметр GMC формата                     : Без точки перехода
Параметр матрицы формата                 : Default (MPEG)
Режим смешивания                         : Сжатый битовый поток
Идентификатор кодека                     : XVID
Идентификатор кодека/Подсказка           : XviD
Продолжительность                        : 1 ч. 27 м.
Битрейт                                  : 1055 Кбит/сек
Ширина                                   : 640 пикселей
Высота                                   : 480 пикселей
Соотношение сторон                       : 4:3
Частота кадров                           : 25,000 кадров/сек
Цветовое пространство                    : YUV
Субдискретизация насыщенности            : 4:2:0
Битовая глубина                          : 8 бит
Тип развёртки                            : Прогрессивная
Метод сжатия                             : С потерями
Бит/(Пиксели*Кадры)                      : 0.137
Размер потока                            : 659 Мбайт (88%)
Библиотека кодирования                   : XviD 1.2.1 (UTC 2008-12-04)
Аудио
Идентификатор                            : 1
Формат                                   : MPEG Audio
Версия формата                           : Version 1
Профиль формата                          : Layer 3
Режим                                    : Joint stereo
Расширение режима                        : MS Stereo
Идентификатор кодека                     : 55
Идентификатор кодека/Подсказка           : MP3
Продолжительность                        : 1 ч. 27 м.
Вид битрейта                             : Постоянный
Битрейт                                  : 128 Кбит/сек
Каналы                                   : 2 канала
Частота                                  : 48,0 КГц
Метод сжатия                             : С потерями
Размер потока                            : 79,9 Мбайт (11%)
Выравнивание                             : Соединение по промежуткам
Продолжительность промежутка             : 40  мс. (1,00 видеокадр)
Время предзагрузки промежутка            : 504  мс.
Библиотека кодирования                   : LAME3.97
Настройки программы                      : -m j -V 4 -q 1 -b 128
Скриншоты:
         
         -
Вне форума [Профиль] [ЛС]
Похожие темы
Форум Тема Автор Торрент Отв. Посл. сообщение
./templates/default/images/folder_dl.gif Обучающее видео Алекс Мэй | Сексуальные позиции. Для максимального наслаждения (2013) [CamRip] Omen
1 | 0

0 | 1784

201

2015-05-07 00:08
Omen Последнее
Показать сообщения:    
Ответить на тему

Текущее время: Сегодня 18:11

Часовой пояс: GMT + 3



Вы не можете начинать темы
Вы не можете отвечать на сообщения
Вы не можете редактировать свои сообщения
Вы не можете удалять свои сообщения
Вы не можете голосовать в опросах
Вы не можете прикреплять файлы к сообщениям
Вы не можете скачивать файлы