Сегодня идет свободное скачивание без начисления Download

Лурджа Магданы (1955) DVDRip

Ответить на тему
 
Автор
Сообщение

UndegraundMen ®

Стаж: 5 лет 7 месяцев

Сообщений: 25860

Торрент-статистика

Пост 02-Мар-2013 16:41

[Цитировать]

-Лурджа Магданы (1955) DVDRip- Русское название: Лурджа Магданы
Год выпуска: 1955
Жанр: Драма
Описание фильма:
Экранизация популярного в Грузии рассказа писательницы Экатерине Габашвили.
Действие происходит на рубеже XIX и ХХ веков в деревне неподалеку от Тифлиса (так раньше назывался Тбилиси). Вдова Магдана каждое утро относит в город на продажу глиняные банки со свежим мацони (сорт кефира), чтобы прокормить троих детей — двенадцатилетнюю Софо, шестилетнего Михо и трехлетнюю Като. Однажды дети нашли на дороге близ деревни издыхающего осла, которого хозяин, богатый торговец углем Митуа, бросил умирать, считая, что его уже не поднять. Дети осла выходили, дали кличку Лурджа («синеглазый»), как только ослик, придя в себя, открыл свои большие ласковые глаза. Ослик обнаружил благородный и добрый нрав, сделался настоящим помощником и кормильцем этой бедной семьи. Магдана уже не сама носила тяжелую ношу в город, а нагружала банками со свежим мацони Лурджу и налегке, рядом с ним, отправлялась в путь. Но продлилась эта идиллия недолго…

Режиссер: Тенгиз Абуладзе, Резо (Реваз) Чхеидзе
Актеры: Дудухана Церодзе, Лиана Моисцрапишвили, Нани Чиквинидзе, Роланд (Михо) Борашвили, Акакий (Како) Кванталиани, Карло Саканделидзе, Акакий Васадзе, Александр Омиадзе, Александр Такайшвили, Давид (Додо) Абашидзе, Шалва Гедеванишвили, Нино Чхеидзе, Александр Алазниспирели, Екатерина (Цаца) Амиреджиби, Мариам Гарикули, Владимир Гвишиани, Мераб Гегечкори, Степан Григуров, Бухути Закариадзе, Мери Канделаки, Василий Кахниашвили, Нуну Мачавариани, Шота Нозадзе, Мавр Пясецкий, Ираклий Кокрашвили, Шалва Херхеулидзе
Продолжительность: 01:03:06

Доп. информация

Сценарий: Карло Гогодзе
Операторы: Александр Дигмелов, Лев Сухов
Композитор: Арчил Кереселидзе
Выпущено: "Грузия-фильм"
Дублировано: киностудия им. М.Горького
Награды: приз МКФ в Канне (конкурс короткометражных фильмов) за лучший художественный фильм (1956); почетный диплом МКФ в Эдинбурге (1956)
«Лурджа Магданы» — простая история, по-настоящему трогательная, чувствительная. В простоте — главный секрет успеха картины.
Молодые режиссеры отважно отказались почти от всех «выигрышных» и привычных «живописных» возможностей. Они взяли камерную драму, где героями были простые деревенские жители, и показали ее просто, даже бесхитростно, не пытались усилить ее драматизм. И, как любил говорить Жан Ренуар, выиграли там, где, по всем расчетам, должны были проиграть.
Видеокодек: DivX Codec 5
Битрейт видео:~2509 kbps
Размер кадра: 720x544
Качество видео: DVDRip
Аудиокодек: MP3,2ch
Битрейт аудио: 160 kbps

MI

Общее
Полное имя : G:\Фильмы наши\Lurdzha_Magdany.avi
Формат : AVI
Формат/Информация : Audio Video Interleave
Размер файла : 1,19 Гбайт
Продолжительность : 1 ч. 3 м.
Общий поток : 2676 Кбит/сек
Программа кодирования : VirtualDubMod 1.5.4.1 (build 2178/release)
Библиотека кодирования : VirtualDubMod build 2178/release
Видео
Идентификатор : 0
Формат : MPEG-4 Visual
Параметр BVOP формата : 1
Параметр QPel формата : Нет
Параметр GMC формата : Без точки перехода
Параметр матрицы формата : Default (H.263)
Режим смешивания : Сжатый битовый поток
Идентификатор кодека : DX50
Идентификатор кодека/Подсказка : DivX 5
Продолжительность : 1 ч. 3 м.
Битрейт : 2509 Кбит/сек
Ширина : 720 пикселей
Высота : 544 пикселя
Соотношение сторон : 4:3
Частота кадров : 25,000 кадров/сек
Цветовое пространство : YUV
Субдискретизация насыщенности : 4:2:0
Битовая глубина : 8 бит
Тип развёртки : Прогрессивная
Метод сжатия : С потерями
Бит/(Пиксели*Кадры) : 0.256
Размер потока : 1,12 Гбайт (94%)
Библиотека кодирования : DivX 6.7.0 (UTC 2007-09-20)
Аудио
Идентификатор : 1
Формат : MPEG Audio
Версия формата : Version 1
Профиль формата : Layer 3
Режим : Joint stereo
Расширение режима : MS Stereo
Идентификатор кодека : 55
Идентификатор кодека/Подсказка : MP3
Продолжительность : 1 ч. 3 м.
Вид битрейта : Постоянный
Битрейт : 160 Кбит/сек
Каналы : 2 канала
Частота : 48,0 КГц
Метод сжатия : С потерями
Размер потока : 72,8 Мбайт (6%)
Выравнивание : Соединение по промежуткам
Продолжительность промежутка : 80 мс. (2,00 видеокадра)
Время предзагрузки промежутка : 504 мс.
Библиотека кодирования : LAME3.97
Настройки программы : -m j -V 4 -q 2 -lowpass 17.5 -b 160
Язык : Russian
Скриншоты:
         
         
Вне форума [Профиль] [ЛС]
Показать сообщения:    
Ответить на тему

Текущее время: Сегодня 02:44

Часовой пояс: GMT + 3



Вы не можете начинать темы
Вы не можете отвечать на сообщения
Вы не можете редактировать свои сообщения
Вы не можете удалять свои сообщения
Вы не можете голосовать в опросах
Вы не можете прикреплять файлы к сообщениям
Вы не можете скачивать файлы