Сегодня идет свободное скачивание без начисления Download

Поезд идёт на восток(1947)DVDRip

Ответить на тему
 
Автор
Сообщение

UndegraundMen ®

Стаж: 5 лет 7 месяцев

Сообщений: 25860

Торрент-статистика

Пост 02-Мар-2013 16:41

[Цитировать]

-Поезд идёт на восток(1947)DVDRip- Оригинальное название: Поезд идёт на восток
Год выпуска: 1947
Страна: СССР
Жанр: Комедия, мелодрама
Описание фильма:
Легендарная романтическая комедия, вышедшая на экраны в первые послевоенные годы. Морской офицер Лаврентьев и агроном Зина Соколова встретились 9 мая 1945 года в поезде "Москва-Владивосток". Отстав от поезда на одной из станций, они получают возможность лучше присмотреться друг к другу. В конце их долгого путешествия на Дальний Восток, полного головокружительных и романтических приключений, они понимают, что расстаются ненадолго...
Режиссер: Юлий Райзман
Актеры: Лидия Драновская, Петр Глебов, Владимир Дорофеев, Константин Сорокин, Леонид Галлис, Мария Яроцкая, Владимир Любимов, Владимир Уральский, Николай Горлов, Татьяна Барышева, Сергей Комаров, Андрей Петров, Олеся Иванова, Александра Денисова, Мария Андрианова, Тихон Хренников
Продолжительность: 01:27:02

Видеокодек: XviD
Битрейт видео: ~2010 kbps
Размер кадра: 688x512
Качество видео: DVDRip
Аудиокодек: АС3, 2 ch
Битрейт аудио: 384.00 kbps

Данные MediaInfo:

Общее
Полное имя : C:\Users\1\Downloads\Poezd.idet.na.vostok.avi
Формат : AVI
Формат/Информация : Audio Video Interleave
Размер файла : 1,46 Гбайт
Продолжительность : 1 ч. 27 м.
Общий поток : 2406 Кбит/сек
Программа кодирования : VirtualDubModRus 1.5.10.2 (build 2542/release)
Библиотека кодирования : VirtualDubMod build 2542/release
Видео
Идентификатор : 0
Формат : MPEG-4 Visual
Профиль формата : Advanced [email protected]
Параметр BVOP формата : 2
Параметр QPel формата : Нет
Параметр GMC формата : Без точки перехода
Параметр матрицы формата : Default (MPEG)
Режим смешивания : Сжатый битовый поток
Идентификатор кодека : XVID
Идентификатор кодека/Подсказка : XviD
Продолжительность : 1 ч. 27 м.
Битрейт : 2012 Кбит/сек
Ширина : 688 пикселей
Высота : 512 пикселей
Соотношение сторон : 4:3
Частота кадров : 25,000 кадров/сек
Цветовое пространство : YUV
Субдискретизация насыщенности : 4:2:0
Битовая глубина : 8 бит
Тип развёртки : Прогрессивная
Метод сжатия : С потерями
Бит/(Пиксели*Кадры) : 0.228
Размер потока : 1,22 Гбайт (84%)
Библиотека кодирования : XviD 64
Аудио
Идентификатор : 1
Формат : AC-3
Формат/Информация : Audio Coding 3
Расширение режима : CM (complete main)
Идентификатор кодека : 2000
Продолжительность : 1 ч. 27 м.
Вид битрейта : Постоянный
Битрейт : 384 Кбит/сек
Каналы : 2 канала
Расположение каналов : Front: L R
Частота : 48,0 КГц
Битовая глубина : 16 бит
Метод сжатия : С потерями
Размер потока : 239 Мбайт (16%)
Выравнивание : Соединение по промежуткам
Продолжительность промежутка : 40 мс. (1,00 видеокадр)
Время предзагрузки промежутка : 512 мс.
Скриншоты:
         
         

Интересный исторический факт:

Фильм не произвёл должного впечатления на Иосифа Виссарионовича, при просмотре которого, где-то по середине фильма Вождь спросил, кого-то из киношных начальников:
- А где примерно сейчас находится поезд?
- Я думаю, что недалеко от Свердловска.
Не растерявшись, ответил чиновник.
- Тогда можно я сойду на следующей станции?
Спросил Сталин и, не дожидаясь ответа, вышел из кинозала.
Вне форума [Профиль] [ЛС]
Показать сообщения:    
Ответить на тему

Текущее время: Сегодня 03:59

Часовой пояс: GMT + 3



Вы не можете начинать темы
Вы не можете отвечать на сообщения
Вы не можете редактировать свои сообщения
Вы не можете удалять свои сообщения
Вы не можете голосовать в опросах
Вы не можете прикреплять файлы к сообщениям
Вы не можете скачивать файлы