Сегодня идет свободное скачивание без начисления Download

Тревожная молодость (1955) DVDRip

Ответить на тему
 
Автор
Сообщение

UndegraundMen ®

Стаж: 5 лет 9 месяцев

Сообщений: 25860

Торрент-статистика

Пост 02-Мар-2013 16:41

[Цитировать]

-Тревожная молодость (1955) DVDRip- Русское название: Тревожная молодость
Год выпуска: 1955
Жанр: Драма
Описание фильма:
Всеми признанный удачный дебют Алова и Наумова о трех юных участниках революционных боев на Украине, пришедших на завод в первые годы восстановления народного хозяйства. По трилогии В.Беляева "Старая крепость". В городе хаос и тревога, непримиримая вражда разделила людей: гимназисты воюют с бойскаутами, бойскауты с голытьбой, а голытьба со всеми, как того и требует классовое сознание…
Режиссер: Александр Алов, Владимир Наумов
Актеры: Борис Бабочкин, Сергей Гурзо, Изольда Извицкая, Николай Крючков, Тамара Логинова, Олег Рутковский, Николай Рыбников, Александр Суснин, Леонид Ципляков, Света Величко, Григорий Гай, Юрий Лавров, Елена Тяпкина, Александр Хвыля, Ольга Петренко, Юрий Кротенко, Николай Яковченко, Семен Лихогоденко
Продолжительность: 01:33:32-
Дата мировой премьеры: 29 апреля 1955-Видеокодек: DivX 5
Битрейт видео: ~1699 Кбит/сек
Размер кадра: 688x512
Качество видео: DVDRip
Битрейт аудио: Русский, AC3, 384 Кбит/сек, 2 канала

MediaInfo:

Код:
Общее
Полное имя                               : D:\Trevozhnaja.molodost.1955.DVDRip.avi
Формат                                   : AVI
Формат/Информация                        : Audio Video Interleave
Размер файла                             : 1,37 Гбайт
Продолжительность                        : 1 ч. 33 м.
Общий поток                              : 2092 Кбит/сек
Программа кодирования                    : VirtualDubModRus 1.5.10.2 (build 2542/release)
Библиотека кодирования                   : VirtualDubMod build 2542/release
Видео
Идентификатор                            : 0
Формат                                   : MPEG-4 Visual
Параметр BVOP формата                    : 1
Параметр QPel формата                    : Нет
Параметр GMC формата                     : Без точки перехода
Параметр матрицы формата                 : Default (H.263)
Режим смешивания                         : Сжатый битовый поток
Идентификатор кодека                     : DX50
Идентификатор кодека/Подсказка           : DivX 5
Продолжительность                        : 1 ч. 33 м.
Битрейт                                  : 1699 Кбит/сек
Ширина                                   : 688 пикселей
Высота                                   : 512 пикселей
Соотношение сторон                       : 4:3
Частота кадров                           : 25,000 кадров/сек
Цветовое пространство                    : YUV
Субдискретизация насыщенности            : 4:2:0
Битовая глубина                          : 8 бит
Тип развёртки                            : Прогрессивная
Метод сжатия                             : С потерями
Бит/(Пиксели*Кадры)                      : 0.193
Размер потока                            : 1,11 Гбайт (81%)
Библиотека кодирования                   : DivX 6.8.3-6.8.4 (UTC 2008-06-07)
Аудио
Идентификатор                            : 1
Формат                                   : AC-3
Формат/Информация                        : Audio Coding 3
Расширение режима                        : CM (complete main)
Параметр Endianness формата              : Big
Идентификатор кодека                     : 2000
Продолжительность                        : 1 ч. 33 м.
Вид битрейта                             : Постоянный
Битрейт                                  : 384 Кбит/сек
Каналы                                   : 2 канала
Расположение каналов                     : Front: L R
Частота                                  : 48,0 КГц
Битовая глубина                          : 16 бит
Метод сжатия                             : С потерями
Размер потока                            : 257 Мбайт (18%)
Выравнивание                             : Соединение по промежуткам
Продолжительность промежутка             : 40  мс. (1,00 видеокадр)
Время предзагрузки промежутка            : 512  мс.
Скриншоты:        
       
Время раздачи: с 15:00 до 22:00 до 3-ёх сидеров
Вне форума [Профиль] [ЛС]
Похожие темы
Форум Тема Автор Торрент Отв. Посл. сообщение
./templates/default/images/folder_dl.gif Психология, Тренинг, Саморазвитие Денис Бурхаев | Вебинар «Самостоятельное лечение тревожности» (2014) [MP3] Omen
2 | 0

0 | 5270

73

2015-05-17 21:20
Omen Последнее
Показать сообщения:    
Ответить на тему

Текущее время: Сегодня 14:59

Часовой пояс: GMT + 3



Вы не можете начинать темы
Вы не можете отвечать на сообщения
Вы не можете редактировать свои сообщения
Вы не можете удалять свои сообщения
Вы не можете голосовать в опросах
Вы не можете прикреплять файлы к сообщениям
Вы не можете скачивать файлы