Today is a free download without charge Download

Приказано уничтожить. Операция "Китайская шкатулка" / Серии: 1-4 из 4 ( Сергей Бобров) [2009, Военный, HDTVRip 720p]

Reply to topic
 
Author
Message

Omen ®

Longevity: 9 years 1 month

Posts: 181086

Торрент-статистика

Post 02-Mar-2013 14:48

[Quote]

Приказано уничтожить. Операция "Китайская шкатулка"
Год выпуска: 2009
Производство: Одесская киностудия, Талан
Жанр: Военный
Продолжительность: ~00:45:00
Режиссёр: Сергей Бобров
В ролях: Константин Лавроненко, Михаил Ефремов, Валерий Золотухин, Геннадий Хазанов, Рената Литвинова, Андрей Смоляков, Сергей Баталов, Анна Казючиц, Кирилл Плетнев, Фёдор Добронравов, Нина Лощинина (Филимошкина), Иван Стебунов и другие.
Описание: 1943 год. Историко-шпионский боевик о покушении на жизнь Сталина в конце Второй мировой войны, подготовленного самыми высокопоставленными чинами из окружения Гитлера - Скорцени, Шелленберг, Краузе. Покушение тщательно спланировано и проводится в обстоятельствах абсолютной секретности. Кодовое название - "Китайская шкатулка". Убить Главнокомандующего советской армии Иосифа Сталина - такую задачу ставит Гитлер перед Армией Третьего Рейха. Агентов-убийц готовят к выполнению задания в специальной диверсионной школе. Здесь советские пленные солдаты используются как живой материал для обучения агентов немецкой разведки. Тренировку выдерживает только один из претендентов на особую роль в истории. Им оказывается беглый русский солдат Пётр Таврин. Тем временем, советской контрразведке "Смерш" становится известно о плане Гитлера. Создаётся специальная группа из лучших офицеров-разведчиков, которые должны не допустить, чтобы название "Китайская шкатулка" вошло в историю. За каждым из офицеров группы стоит человеческая судьба и свой опыт войны. Постепенно раскрывается вся шпионская сеть. Но чем больше разоблачений, тем больше загадок и тем ближе продвигается к Москве убийца. Но, идя по следу, выявив агентурную цепочку на пути в Москву, команда контрразведки всё-таки не может опередить агента-убийцу. Враг подчас предстаёт в самом неожиданном облике. Контрразведчики понимают, что причина невозможности опередить убийцу заключается во внедрении в их команду немецкого агента. Так под подозрением в измене родине оказываются все члены группы...

Качество: HDTVRip 720p [Рип с HDTV 1080i]
Формат: MKV
Видео кодек: H.264
Аудио кодек: MPEG Audio
Видео: x264, 1280 х 720 (16:9), 25,000 кадр/сек, ~ 3050 Кбит/сек
Аудио: MPEG Audio 48000Hz stereo 192 Кбит/сек
Сторонней рекламы нет!

MediaInfo

Полное имя : H:\ФИЛЬМЫ\Приказано уничтожить! Операция «Китайская шкатулка» HDTVRip 720 p\Приказано уничтожить! Операция «Китайская шкатулка» 02_серия_HDTVRip 720 p_by_Серый1779.mkvФормат : MatroskaВерсия формата : Version 2Размер файла : 1,00 ГбайтПродолжительность : 44 м.Общий поток : 3244 Кбит/секДата кодирования : UTC 2013-02-28 22:28:31Программа кодирования : mkvmerge v5.6.0 ('Kenya Kane') built on Jun 29 2012 15:01:44Библиотека кодирования : libebml v1.2.3 + libmatroska v1.3.0
ВидеоИдентификатор : 1Формат : AVCФормат/Информация : Advanced Video CodecПрофиль формата : [email protected]Параметр CABAC формата : ДаПараметр ReFrames формата : 9 кадровИдентификатор кодека : V_MPEG4/ISO/AVCПродолжительность : 44 м.Битрейт : 2988 Кбит/секШирина : 1280 пикселейВысота : 720 пикселейСоотношение сторон : 16:9Режим частоты кадров : ПостоянныйЧастота кадров : 25,000 кадров/секЦветовое пространство : YUVСубдискретизация насыщенности : 4:2:0Битовая глубина : 8 битТип развёртки : ПрогрессивнаяБит/(Пиксели*Кадры) : 0.130Размер потока : 945 Мбайт (92%)Библиотека кодирования : x264 core 125 r2200 999b753Настройки программы : cabac=1 / ref=9 / deblock=1:-2:-2 / analyse=0x3:0x133 / me=umh / subme=9 / psy=1 / psy_rd=1.10:0.15 / mixed_ref=1 / me_range=32 / chroma_me=1 / trellis=2 / 8x8dct=1 / cqm=0 / deadzone=21,11 / fast_pskip=0 / chroma_qp_offset=-3 / threads=3 / lookahead_threads=1 / sliced_threads=0 / nr=0 / decimate=1 / interlaced=0 / bluray_compat=0 / constrained_intra=0 / bframes=9 / b_pyramid=2 / b_adapt=2 / b_bias=0 / direct=1 / weightb=1 / open_gop=0 / weightp=2 / keyint=250 / keyint_min=25 / scenecut=40 / intra_refresh=0 / rc=crf / mbtree=0 / crf=20.0 / qcomp=0.60 / qpmin=0 / qpmax=69 / qpstep=4 / ip_ratio=1.40 / pb_ratio=1.30 / aq=2:0.80Default : ДаForced : НетОсновные цвета : BT.601 PALХарактеристики трансфера : BT.470 System B, BT.470 System GКоэффициенты матрицы : BT.601
АудиоИдентификатор : 2Формат : MPEG AudioВерсия формата : Version 1Профиль формата : Layer 2Идентификатор кодека : A_MPEG/L2Идентификатор кодека/Подсказка : MP2Продолжительность : 44 м.Вид битрейта : ПостоянныйБитрейт : 192 Кбит/секКаналы : 2 каналаЧастота : 48,0 КГцМетод сжатия : С потерямиРазмер потока : 60,7 Мбайт (6%)Default : ДаForced : Нет

h264 log

x264 [info]: frame I:591 Avg QP:18.75 size:102388x264 [info]: frame P:13577 Avg QP:20.13 size: 33785x264 [info]: frame B:52150 Avg QP:22.21 size: 9439x264 [info]: consecutive B-frames: 1.8% 1.4% 8.7% 11.6% 12.2% 61.8% 1.7% 0.4% 0.2% 0.2%x264 [info]: mb I I16..4: 6.0% 82.1% 11.9%x264 [info]: mb P I16..4: 1.5% 9.2% 1.2% P16..4: 50.4% 18.2% 14.6% 0.5% 0.1% skip: 4.4%x264 [info]: mb B I16..4: 0.1% 0.8% 0.1% B16..8: 41.7% 5.5% 1.4% direct: 6.1% skip:44.2% L0:37.4% L1:55.1% BI: 7.5%x264 [info]: 8x8 transform intra:78.5% inter:64.0%x264 [info]: coded y,uvDC,uvAC intra: 84.5% 76.3% 40.0% inter: 22.9% 21.0% 0.8%x264 [info]: i16 v,h,dc,p: 29% 19% 7% 44%x264 [info]: i8 v,h,dc,ddl,ddr,vr,hd,vl,hu: 12% 10% 5% 8% 13% 14% 13% 12% 13%x264 [info]: i4 v,h,dc,ddl,ddr,vr,hd,vl,hu: 12% 11% 3% 8% 14% 15% 14% 11% 13%x264 [info]: i8c dc,h,v,p: 36% 27% 22% 15%x264 [info]: Weighted P-Frames: Y:5.2% UV:3.3%x264 [info]: ref P L0: 47.8% 12.0% 20.2% 4.9% 4.9% 3.0% 3.3% 1.6% 1.9% 0.3% 0.0%x264 [info]: ref B L0: 87.1% 7.6% 2.2% 1.1% 0.8% 0.7% 0.4% 0.2%x264 [info]: ref B L1: 95.6% 4.4%x264 [info]: kb/s:3050.26
x264 [total]: encoded 66318 frames, 2.31 fps, 3050.26 kb/s
Отдельное спасибо mydimka за предоставление исходника.

Внимание ! Раздача ведётся путём добавления новых серий

Внимание! Раздача ведётся путём добавления новых серий; при каждом добавлении создётся новый торрент. Чтобы начать докачку новой серии, пользователям необходимо сделать следующее:
(1) остановить скачивание,
(2) удалить старый торрент у себя из клиента (старые серии удалять не надо),
(3) скачать новый торрент и запустить его у себя в клиенте вместо старого, при этом указать клиенту путь в старую папку куда и должно происходить скачивание новых серий.
Ваш клиент при этом должен произвести хеширование (проверку) старой папки (если не производит сам - помогите ему сделать это), и будет докачивать только те серии которых у вас ещё нет. Старые серии при этом не удаляются, а продолжают раздаваться!
Eсли вы уже удалили старые серии, то предотвратить повторную закачку старых серий можно, отжав галочку в соответсвующих местах при запуске нового торрента. По возможности, желательно не удалять старые серии как можно дольше чтобы релизёр не столько продолжал раздавать старые серии, а смог сконцентрироваться на новых.
ВНИМАНИЕ! ТОРРЕНТ ПЕРЕЗАЛИТ! ДОБАВЛЕНА 4-ая СЕРИИ!

Скриншоты

Other forum [Profile] [PM]
Display posts from previous:    
Reply to topic

The time now is: Today 23:35

All times are GMT + 3 Hours



You cannot post new topics in this forum
You cannot reply to topics in this forum
You cannot edit your posts in this forum
You cannot delete your posts in this forum
You cannot vote in polls in this forum
You cannot attach files in this forum
You cannot download files in this forum